<?xml version="1.0" standalone="no"?>
<!DOCTYPE svg PUBLIC "-//W3C//DTD SVG 1.1//EN" "http://www.w3.org/Graphics/SVG/1.1/DTD/svg11.dtd" >
<svg xmlns="http://www.w3.org/2000/svg" xmlns:xlink="http://www.w3.org/1999/xlink" version="1.1">
<metadata>
Created by FontForge 20150824 at Mon Oct 24 08:39:03 2016
 By Everything Fonts
Spaced and kerned with iKern.
</metadata>
<defs>
<font id="MuseoSans-100" horiz-adv-x="376" >
  <font-face 
    font-family="Museo Sans 100"
    font-weight="250"
    font-stretch="normal"
    units-per-em="1000"
    panose-1="2 0 0 0 0 0 0 0 0 0"
    ascent="750"
    descent="-250"
    x-height="500"
    cap-height="700"
    bbox="-115 -210 1088 874"
    underline-thickness="50"
    underline-position="-100"
    stemh="40"
    stemv="43"
    unicode-range="U+0020-FB04"
  />
<missing-glyph horiz-adv-x="510" 
d="M5 0v700h500v-700h-500zM255 395l170 255h-340zM285 350l170 -255v510zM55 95l170 255l-170 255v-510zM85 50h340l-170 255z" />
    <glyph glyph-name="f_f" unicode="ff" horiz-adv-x="610" 
d="M414 0v462h-263v-462h-42v462h-63v38h63v20c0 165 108 185 158 185c16 0 26 -2 26 -2v-39s-9 2 -23 2c-40 0 -119 -16 -119 -145v-21h263v20c0 165 108 185 158 185c16 0 26 -2 26 -2v-39s-9 2 -23 2c-40 0 -119 -16 -119 -145v-21h137v-38h-137v-462h-42z" />
    <glyph glyph-name="fi" unicode="fi" horiz-adv-x="523" 
d="M393 0v462h-242v-462h-42v462h-63v38h63v20c0 165 108 185 158 185c16 0 26 -2 26 -2v-39s-9 2 -23 2c-40 0 -119 -16 -119 -145v-21h284v-500h-42zM389 627v73h50v-73h-50z" />
    <glyph glyph-name="fl" unicode="fl" horiz-adv-x="535" 
d="M109 0v459h-63v38h63v23c0 165 108 185 158 185c16 0 26 -2 26 -2v-39s-9 2 -23 2c-40 0 -119 -16 -119 -145v-24h137v-38h-137v-459h-42zM388 101v599h42v-586c0 -70 36 -78 59 -78c8 0 15 1 15 1v-39s-9 -2 -18 -2c-29 0 -98 11 -98 105z" />
    <glyph glyph-name="f_f_i" unicode="ffi" horiz-adv-x="828" 
d="M698 0v462h-242v-462h-42v462h-263v-462h-42v462h-63v38h63v20c0 165 108 185 158 185c16 0 26 -2 26 -2v-39s-9 2 -23 2c-40 0 -119 -16 -119 -145v-21h263v20c0 165 108 185 158 185c16 0 26 -2 26 -2v-39s-9 2 -23 2c-40 0 -119 -16 -119 -145v-21h284v-500h-42z
M694 627v73h50v-73h-50z" />
    <glyph glyph-name="f_f_l" unicode="ffl" horiz-adv-x="840" 
d="M414 0v462h-263v-462h-42v462h-63v38h63v20c0 165 108 185 158 185c16 0 26 -2 26 -2v-39s-9 2 -23 2c-40 0 -119 -16 -119 -145v-21h263v20c0 165 108 185 158 185c16 0 26 -2 26 -2v-39s-9 2 -23 2c-40 0 -119 -16 -119 -145v-21h137v-38h-137v-462h-42zM693 101v599
h42v-586c0 -70 36 -78 59 -78c8 0 15 1 15 1v-39s-9 -2 -18 -2c-29 0 -98 11 -98 105z" />
    <glyph glyph-name="f_j" unicode="fj" horiz-adv-x="523" 
d="M109 0v462h-63v38h63v20c0 165 108 185 158 185c16 0 26 -2 26 -2v-39s-9 2 -23 2c-40 0 -119 -16 -119 -145v-21h284v-520c0 -166 -108 -185 -159 -185c-15 0 -25 2 -25 2v39s9 -2 22 -2c40 0 120 16 120 145v483h-242v-462h-42zM389 627v73h50v-73h-50z" />
    <glyph glyph-name=".notdef" horiz-adv-x="510" 
d="M5 0v700h500v-700h-500zM255 395l170 255h-340zM285 350l170 -255v510zM55 95l170 255l-170 255v-510zM85 50h340l-170 255z" />
    <glyph glyph-name="space" unicode=" " horiz-adv-x="277" 
 />
    <glyph glyph-name="exclam" unicode="!" horiz-adv-x="295" 
d="M126 175v525h43v-525h-43zM119 0v61h59v-61h-59z" />
    <glyph glyph-name="quotedbl" unicode="&#x22;" horiz-adv-x="291" 
d="M176 558v151h43v-151h-43zM72 558v151h43v-151h-43z" />
    <glyph glyph-name="numbersign" unicode="#" horiz-adv-x="733" 
d="M169 0l35 199h-152l7 40h152l39 221h-152l7 40h152l35 200h43l-35 -200h189l35 200h43l-35 -200h149l-7 -40h-149l-39 -221h149l-7 -40h-149l-35 -199h-43l35 199h-189l-35 -199h-43zM254 239h189l39 221h-189z" />
    <glyph glyph-name="dollar" unicode="$" horiz-adv-x="548" 
d="M66 75l29 33s71 -78 187 -78c87 0 156 54 156 138c0 194 -361 149 -361 363c0 86 71 167 182 179v95h43v-94c105 -4 163 -64 163 -64l-24 -37s-60 60 -153 60c-104 0 -166 -70 -166 -138c0 -180 361 -133 361 -362c0 -95 -69 -172 -181 -181v-93h-43v93
c-125 8 -193 86 -193 86z" />
    <glyph glyph-name="percent" unicode="%" horiz-adv-x="702" 
d="M193 451c-72 0 -130 58 -130 130s58 131 130 131s131 -59 131 -131s-59 -130 -131 -130zM61 0l531 700h52l-531 -700h-52zM193 491c50 0 88 40 88 90s-38 91 -88 91s-87 -41 -87 -91s37 -90 87 -90zM379 118c0 72 58 131 130 131s131 -59 131 -131s-59 -130 -131 -130
s-130 58 -130 130zM422 118c0 -50 37 -90 87 -90s88 40 88 90s-38 91 -88 91s-87 -41 -87 -91z" />
    <glyph glyph-name="ampersand" unicode="&#x26;" horiz-adv-x="666" 
d="M65 191c0 82 46 164 132 188v2s-101 29 -101 157c0 100 74 174 204 174c30 0 74 -10 74 -10l-14 -38s-37 8 -63 8c-88 0 -156 -51 -156 -133c0 -50 19 -141 171 -141h163v102h43v-102h97v-40h-97v-112c0 -178 -90 -258 -223 -258c-135 0 -230 87 -230 203zM110 193
c0 -90 68 -163 185 -163c107 0 180 59 180 216v112h-161c-140 0 -204 -68 -204 -165z" />
    <glyph glyph-name="quotesingle" unicode="'" horiz-adv-x="187" 
d="M72 558v151h43v-151h-43z" />
    <glyph glyph-name="parenleft" unicode="(" horiz-adv-x="277" 
d="M193 -95c-68 119 -110 274 -110 430c0 144 40 274 110 390h44c-72 -121 -113 -250 -113 -391c0 -149 37 -296 113 -429h-44z" />
    <glyph glyph-name="parenright" unicode=")" horiz-adv-x="277" 
d="M84 -95h-44c76 133 113 280 113 429c0 141 -41 270 -113 391h44c70 -116 110 -246 110 -390c0 -156 -42 -311 -110 -430z" />
    <glyph glyph-name="asterisk" unicode="*" horiz-adv-x="470" 
d="M141 344l-36 25l99 130v2l-156 47l13 42l155 -54l-5 164h47l-5 -164l156 53l14 -41l-157 -47v-2l98 -130l-35 -26l-93 134h-2z" />
    <glyph glyph-name="plus" unicode="+" horiz-adv-x="686" 
d="M85 263v40h237v263h43v-263h236v-40h-236v-263h-43v263h-237z" />
    <glyph glyph-name="comma" unicode="," horiz-adv-x="241" 
d="M45 -94l53 155h56l-67 -155h-42z" />
    <glyph glyph-name="hyphen" unicode="-" horiz-adv-x="356" 
d="M40 263v40h276v-40h-276z" />
    <glyph glyph-name="period" unicode="." horiz-adv-x="237" 
d="M88 0v63h61v-63h-61z" />
    <glyph glyph-name="slash" unicode="/" horiz-adv-x="384" 
d="M47 -42l253 782h44l-253 -782h-44z" />
    <glyph glyph-name="zero" unicode="0" horiz-adv-x="622" 
d="M311 -12c-178 0 -236 159 -236 362c0 202 58 362 236 362s236 -160 236 -362c0 -203 -58 -362 -236 -362zM311 30c149 0 191 139 191 320c0 180 -42 320 -191 320s-191 -140 -191 -320c0 -181 42 -320 191 -320z" />
    <glyph glyph-name="one" unicode="1" horiz-adv-x="442" 
d="M56 0v40h159v570c0 18 1 35 1 35h-2s-7 -13 -37 -43l-83 -83l-30 29l151 152h43v-660h155v-40h-357z" />
    <glyph glyph-name="two" unicode="2" horiz-adv-x="557" 
d="M66 0c-2 13 -3 25 -3 37c0 243 373 271 373 483c0 84 -62 150 -163 150c-112 0 -170 -100 -170 -100l-32 22s63 120 203 120c138 0 207 -92 207 -192c0 -239 -372 -269 -372 -480h383v-40h-426z" />
    <glyph glyph-name="three" unicode="3" horiz-adv-x="556" 
d="M49 85l32 32s73 -87 188 -87c89 0 175 69 175 172c0 109 -92 167 -187 167h-48l-12 30l196 229c15 18 31 32 31 32v2s-19 -2 -54 -2h-287v40h401v-30l-226 -261c84 0 231 -42 231 -207c0 -120 -101 -214 -222 -214c-133 0 -218 97 -218 97z" />
    <glyph glyph-name="four" unicode="4" horiz-adv-x="588" 
d="M36 200v30l363 470h40v-460h104v-40h-104v-200h-43v200h-360zM96 240h300v328c0 28 3 63 3 63h-2s-17 -25 -35 -48l-266 -341v-2z" />
    <glyph glyph-name="five" unicode="5" horiz-adv-x="554" 
d="M59 89l35 27s48 -86 162 -86c109 0 194 78 194 183c0 106 -85 185 -194 185c-80 0 -136 -42 -136 -42l-32 11l40 333h325v-40h-287l-25 -209c-3 -27 -7 -43 -7 -43h2s49 32 120 32c134 0 239 -101 239 -227s-107 -225 -239 -225c-136 0 -197 101 -197 101z" />
    <glyph glyph-name="six" unicode="6" horiz-adv-x="592" 
d="M316 -12c-155 0 -245 148 -245 327c0 171 85 397 301 397c72 0 122 -28 122 -28l-21 -39s-43 25 -103 25c-163 0 -244 -168 -254 -322h2c39 59 116 96 198 96c123 0 215 -87 215 -223c0 -152 -100 -233 -215 -233zM315 30c108 0 171 80 171 191c0 112 -71 181 -172 181
c-108 0 -194 -76 -194 -139c0 -97 76 -233 195 -233z" />
    <glyph glyph-name="seven" unicode="7" horiz-adv-x="507" 
d="M105 0l292 595c17 35 37 65 37 65v2s-20 -2 -55 -2h-340v40h443v-30l-332 -670h-45z" />
    <glyph glyph-name="eight" unicode="8" horiz-adv-x="601" 
d="M69 200c0 128 125 198 125 198c-53 32 -91 75 -91 143c0 88 70 171 206 171c130 0 208 -73 208 -177c0 -108 -87 -191 -94 -198c59 -33 103 -77 103 -150c0 -110 -99 -199 -225 -199c-116 0 -232 74 -232 212zM481 186c0 105 -137 136 -246 189
c-14 -7 -121 -68 -121 -175s93 -170 187 -170c89 0 180 64 180 156zM148 541c0 -104 128 -134 235 -184c12 11 89 83 89 178c0 83 -68 135 -163 135c-101 0 -161 -58 -161 -129z" />
    <glyph glyph-name="nine" unicode="9" horiz-adv-x="592" 
d="M220 -12c-72 0 -122 28 -122 28l21 39s43 -25 103 -25c163 0 244 168 254 322h-2c-39 -59 -116 -96 -198 -96c-123 0 -215 87 -215 223c0 152 100 233 215 233c155 0 245 -148 245 -327c0 -171 -85 -397 -301 -397zM278 298c108 0 194 76 194 139c0 97 -76 233 -195 233
c-108 0 -171 -80 -171 -191c0 -112 71 -181 172 -181z" />
    <glyph glyph-name="colon" unicode=":" horiz-adv-x="293" 
d="M118 441v59h57v-59h-57zM118 0v59h57v-59h-57z" />
    <glyph glyph-name="semicolon" unicode=";" horiz-adv-x="293" 
d="M121 441v59h57v-59h-57zM76 -94l45 155h52l-56 -155h-41z" />
    <glyph glyph-name="less" unicode="&#x3c;" horiz-adv-x="563" 
d="M54 265v36l439 197v-48l-377 -166v-2l377 -166v-48z" />
    <glyph glyph-name="equal" unicode="=" horiz-adv-x="704" 
d="M124 343v40h456v-40h-456zM124 183v40h456v-40h-456z" />
    <glyph glyph-name="greater" unicode="&#x3e;" horiz-adv-x="563" 
d="M70 68v48l377 166v2l-377 166v48l439 -197v-36z" />
    <glyph glyph-name="question" unicode="?" horiz-adv-x="469" 
d="M162 175v44c0 164 179 177 179 322c0 72 -59 129 -146 129c-73 0 -127 -42 -127 -42l-23 34s59 50 149 50c115 0 192 -74 192 -172c0 -166 -181 -178 -181 -321v-44h-43zM154 0v61h59v-61h-59z" />
    <glyph glyph-name="at" unicode="@" horiz-adv-x="788" 
d="M70 243c0 202 157 365 346 365c172 0 232 -88 232 -177v-344h70v-40h-265c-107 0 -193 87 -193 194s86 196 193 196h150c-3 67 -49 131 -181 131c-173 0 -307 -145 -307 -325c0 -181 134 -323 307 -323v-42c-195 0 -352 162 -352 365zM305 241c0 -85 68 -154 153 -154
h145v310h-143c-87 0 -155 -71 -155 -156z" />
    <glyph glyph-name="A" unicode="A" horiz-adv-x="606" 
d="M542 0l-91 242h-297l-90 -242h-46l262 700h46l262 -700h-46zM304 650h-2s-15 -54 -26 -84l-107 -284h267l-106 284c-11 30 -26 84 -26 84z" />
    <glyph glyph-name="B" unicode="B" horiz-adv-x="619" 
d="M108 0v700h235c102 0 177 -68 177 -175c0 -76 -37 -127 -91 -153v-2c69 -19 119 -87 119 -177c0 -117 -83 -193 -195 -193h-245zM151 388h191c78 0 133 54 133 137c0 82 -52 135 -134 135h-190v-272zM151 40h198c94 0 154 58 154 153s-65 155 -155 155h-197v-308z" />
    <glyph glyph-name="C" unicode="C" horiz-adv-x="734" 
d="M61 355c0 203 150 357 347 357c166 0 250 -88 250 -88l-26 -32s-83 79 -223 79c-172 0 -303 -135 -303 -316c0 -182 130 -326 306 -326c150 0 237 95 237 95l27 -30s-94 -106 -264 -106c-204 0 -351 164 -351 367z" />
    <glyph glyph-name="D" unicode="D" horiz-adv-x="741" 
d="M108 0v700h220c208 0 349 -128 349 -350c0 -223 -141 -350 -349 -350h-220zM151 40h170c186 0 311 109 311 310c0 200 -125 310 -311 310h-170v-620z" />
    <glyph glyph-name="E" unicode="E" horiz-adv-x="571" 
d="M108 0v700h383v-40h-340v-287h279v-40h-279v-293h359v-40h-402z" />
    <glyph glyph-name="F" unicode="F" horiz-adv-x="508" 
d="M108 0v700h353v-40h-310v-292h268v-40h-268v-328h-43z" />
    <glyph glyph-name="G" unicode="G" horiz-adv-x="757" 
d="M61 350c0 202 151 362 349 362c158 0 244 -79 244 -79l-26 -33s-84 71 -218 71c-176 0 -304 -140 -304 -321c0 -182 125 -321 298 -321c150 0 240 115 240 115v135h-125v40h168v-319h-43v61c0 15 1 30 1 30h-2s-84 -103 -239 -103c-195 0 -343 159 -343 362z" />
    <glyph glyph-name="H" unicode="H" horiz-adv-x="746" 
d="M108 0v700h43v-329h444v329h43v-700h-43v331h-444v-331h-43z" />
    <glyph glyph-name="I" unicode="I" horiz-adv-x="259" 
d="M108 0v700h43v-700h-43z" />
    <glyph glyph-name="J" unicode="J" horiz-adv-x="513" 
d="M39 191v22h43v-23c0 -46 11 -80 28 -105c28 -40 73 -56 116 -56c69 0 144 40 144 161v470h-167v40h210v-509c0 -150 -96 -203 -187 -203s-187 53 -187 203z" />
    <glyph glyph-name="K" unicode="K" horiz-adv-x="580" 
d="M108 0v700h43v-312h130l200 312h52l-215 -330v-2l229 -368h-52l-214 348h-130v-348h-43z" />
    <glyph glyph-name="L" unicode="L" horiz-adv-x="509" 
d="M108 0v700h43v-660h334v-40h-377z" />
    <glyph glyph-name="M" unicode="M" horiz-adv-x="850" 
d="M88 0l56 700h42l204 -440c16 -34 34 -79 34 -79h2s18 45 34 79l204 440h42l56 -700h-43l-43 534c-3 34 -3 93 -3 93h-2s-20 -59 -36 -93l-188 -399h-44l-187 399c-15 33 -37 95 -37 95h-2s0 -61 -3 -95l-43 -534h-43z" />
    <glyph glyph-name="N" unicode="N" horiz-adv-x="752" 
d="M108 0v700h40l399 -549c23 -32 57 -88 57 -88h2s-5 53 -5 88v549h43v-700h-40l-399 549c-23 32 -57 88 -57 88h-2s5 -53 5 -88v-549h-43z" />
    <glyph glyph-name="O" unicode="O" horiz-adv-x="826" 
d="M59 355c0 201 159 357 354 357s354 -156 354 -357c0 -206 -159 -367 -354 -367s-354 161 -354 367zM104 355c0 -184 138 -326 309 -326s309 142 309 326c0 179 -138 316 -309 316s-309 -137 -309 -316z" />
    <glyph glyph-name="P" unicode="P" horiz-adv-x="592" 
d="M108 0v700h230c122 0 213 -77 213 -204s-91 -206 -213 -206h-187v-290h-43zM151 330h185c102 0 170 61 170 166s-68 164 -170 164h-185v-330z" />
    <glyph glyph-name="Q" unicode="Q" horiz-adv-x="839" 
d="M60 354c0 202 157 358 352 358c198 0 356 -156 356 -358c0 -95 -35 -185 -92 -249l90 -93l-28 -27l-89 92c-63 -57 -145 -89 -237 -89c-195 0 -352 163 -352 366zM105 354c0 -182 134 -325 307 -325c73 0 153 28 208 78l-90 93l28 27l89 -92c47 57 76 136 76 219
c0 181 -135 317 -311 317c-173 0 -307 -136 -307 -317z" />
    <glyph glyph-name="R" unicode="R" horiz-adv-x="621" 
d="M108 0v700h205c65 0 98 -7 126 -21c58 -29 97 -88 97 -168c0 -100 -58 -175 -140 -193v-2s7 -8 16 -25l157 -291h-51l-166 310h-201v-310h-43zM151 350h190c92 0 150 66 150 161c0 62 -31 112 -82 135c-20 9 -42 14 -98 14h-160v-310z" />
    <glyph glyph-name="S" unicode="S" horiz-adv-x="530" 
d="M56 75l29 33s71 -78 187 -78c87 0 156 54 156 138c0 199 -358 144 -358 363c0 93 83 181 210 181c114 0 178 -65 178 -65l-24 -37s-60 60 -153 60c-104 0 -166 -70 -166 -138c0 -185 358 -128 358 -362c0 -101 -78 -182 -203 -182c-138 0 -214 87 -214 87z" />
    <glyph glyph-name="T" unicode="T" horiz-adv-x="581" 
d="M269 0v660h-261v40h565v-40h-261v-660h-43z" />
    <glyph glyph-name="U" unicode="U" horiz-adv-x="719" 
d="M98 240v460h43v-458c0 -132 86 -213 218 -213s219 81 219 215v456h43v-460c0 -154 -107 -252 -261 -252s-262 98 -262 252z" />
    <glyph glyph-name="V" unicode="V" horiz-adv-x="605" 
d="M279 0l-262 700h46l211 -566c12 -33 27 -84 27 -84h2s15 51 27 84l212 566h46l-262 -700h-47z" />
    <glyph glyph-name="W" unicode="W" horiz-adv-x="919" 
d="M458 639h-2s-14 -66 -27 -111l-148 -528h-54l-184 700h45l148 -570c9 -34 17 -75 17 -75h2c1 0 9 40 19 75l160 570h48l160 -570c10 -35 18 -75 19 -75h2s8 41 17 75l153 570h45l-189 -700h-54l-148 528c-13 45 -27 111 -27 111h-2z" />
    <glyph glyph-name="X" unicode="X" horiz-adv-x="573" 
d="M30 0l226 370l-201 330h52l134 -223c20 -34 46 -78 46 -78h2s22 44 43 78l135 223h52l-203 -330l227 -370h-51l-162 266l-45 75h-2s-21 -41 -42 -76l-160 -265h-51z" />
    <glyph glyph-name="Y" unicode="Y" horiz-adv-x="556" 
d="M257 0v304l-238 396h49l166 -276c20 -34 43 -79 43 -79h2s22 45 43 79l166 276h49l-237 -396v-304h-43z" />
    <glyph glyph-name="Z" unicode="Z" horiz-adv-x="586" 
d="M44 0v34l385 562c24 36 48 64 48 64v2s-16 -2 -51 -2h-361v40h464v-34l-385 -562c-24 -36 -48 -64 -48 -64v-2s16 2 51 2h385v-40h-488z" />
    <glyph glyph-name="bracketleft" unicode="[" horiz-adv-x="267" 
d="M112 -95v820h108v-40h-65v-740h65v-40h-108z" />
    <glyph glyph-name="backslash" unicode="\" horiz-adv-x="384" 
d="M293 -42l-253 782h44l253 -782h-44z" />
    <glyph glyph-name="bracketright" unicode="]" horiz-adv-x="267" 
d="M47 -55h65v740h-65v40h108v-820h-108v40z" />
    <glyph glyph-name="asciicircum" unicode="^" horiz-adv-x="600" 
d="M77 252l197 448h32l197 -448h-46l-167 388l-167 -388h-46z" />
    <glyph glyph-name="underscore" unicode="_" horiz-adv-x="576" 
d="M40 0h496v-40h-496v40z" />
    <glyph glyph-name="grave" unicode="`" horiz-adv-x="509" 
d="M272 750l-79 111h56l67 -111h-44z" />
    <glyph glyph-name="a" unicode="a" horiz-adv-x="513" 
d="M47 133c0 170 221 172 310 172h33v17c0 111 -57 149 -137 149c-87 0 -143 -48 -143 -48l-24 34s60 55 169 55c115 0 177 -64 177 -189v-323h-42v66c0 27 4 45 4 45h-2c1 0 -45 -123 -175 -123c-81 0 -170 45 -170 145zM91 136c0 -53 43 -109 128 -109
c109 0 171 113 171 212v27h-32c-85 0 -267 0 -267 -130z" />
    <glyph glyph-name="b" unicode="b" horiz-adv-x="579" 
d="M88 0v700h42v-260c0 -23 -4 -41 -4 -41h2s43 113 181 113c134 0 216 -107 216 -262c0 -159 -93 -262 -224 -262c-126 0 -173 113 -173 113h-2s4 -18 4 -44v-57h-42zM129 249c0 -111 57 -220 174 -220c98 0 178 81 178 221c0 135 -72 221 -174 221
c-92 0 -178 -65 -178 -222z" />
    <glyph glyph-name="c" unicode="c" horiz-adv-x="551" 
d="M53 249c0 159 119 263 258 263c119 0 179 -71 179 -71l-26 -34s-57 64 -153 64c-117 0 -214 -87 -214 -222c0 -133 97 -220 214 -220c110 0 167 72 167 72l22 -35s-65 -78 -189 -78c-141 0 -258 102 -258 261z" />
    <glyph glyph-name="d" unicode="d" horiz-adv-x="580" 
d="M55 250c0 159 93 262 224 262c126 0 173 -113 173 -113h2s-4 18 -4 41v260h42v-700h-42v63c0 23 4 38 4 38h-2s-43 -113 -181 -113c-134 0 -216 107 -216 262zM99 250c0 -135 72 -221 174 -221c92 0 178 65 178 222c0 111 -57 220 -174 220c-98 0 -178 -81 -178 -221z
" />
    <glyph glyph-name="e" unicode="e" horiz-adv-x="553" 
d="M53 249c0 169 115 263 243 263c136 0 204 -107 204 -228c0 -11 -2 -27 -2 -27h-401c0 -145 98 -228 214 -228c96 0 155 63 155 63l23 -35s-70 -69 -178 -69c-141 0 -258 102 -258 261zM100 296h356c-5 122 -78 177 -161 177c-92 0 -177 -60 -195 -177z" />
    <glyph glyph-name="f" unicode="f" horiz-adv-x="305" 
d="M109 0v459h-63v38h63v23c0 165 108 185 158 185c16 0 26 -2 26 -2v-39s-9 2 -23 2c-40 0 -119 -16 -119 -145v-24h137v-38h-137v-459h-42z" />
    <glyph glyph-name="g" unicode="g" horiz-adv-x="573" 
d="M119 -134c0 0 62 -35 134 -35c107 0 190 51 190 172v58c0 23 4 41 4 41h-2c-30 -61 -85 -102 -168 -102c-130 0 -222 102 -222 258s85 254 215 254c142 0 174 -98 174 -98h2s-3 7 -3 19v67h42v-497c0 -153 -110 -213 -229 -213c-55 0 -108 14 -157 39zM280 41
c88 0 164 55 164 217c0 161 -76 213 -174 213c-107 0 -171 -78 -171 -213s74 -217 181 -217z" />
    <glyph glyph-name="h" unicode="h" horiz-adv-x="586" 
d="M88 0v700h42v-288c0 -23 -4 -41 -4 -41h2c17 47 87 141 212 141c130 0 165 -77 165 -195v-317h-42v302c0 87 -11 169 -123 169c-94 0 -177 -66 -202 -159c-6 -21 -8 -44 -8 -68v-244h-42z" />
    <glyph glyph-name="i" unicode="i" horiz-adv-x="218" 
d="M84 627v73h50v-73h-50zM88 0v500h42v-500h-42z" />
    <glyph glyph-name="j" unicode="j" horiz-adv-x="218" 
d="M88 500h42v-520c0 -166 -108 -185 -159 -185c-15 0 -25 2 -25 2v39s9 -2 22 -2c40 0 120 16 120 145v521zM84 627v73h50v-73h-50z" />
    <glyph glyph-name="k" unicode="k" horiz-adv-x="480" 
d="M88 0v700h42v-397h89l162 197h55l-181 -215v-2l198 -283h-53l-181 264h-89v-264h-42z" />
    <glyph glyph-name="l" unicode="l" horiz-adv-x="230" 
d="M83 101v599h42v-586c0 -70 36 -78 59 -78c8 0 15 1 15 1v-39s-9 -2 -18 -2c-29 0 -98 11 -98 105z" />
    <glyph glyph-name="m" unicode="m" horiz-adv-x="918" 
d="M88 0v500h42v-88c0 -23 -4 -41 -4 -41h2c25 75 114 141 192 141c100 0 147 -47 158 -136h2c28 70 104 136 190 136c129 0 167 -76 167 -195v-317h-42v302c0 94 -19 171 -125 171c-83 0 -154 -74 -176 -152c-7 -23 -10 -48 -10 -77v-244h-42v302c0 86 -12 171 -122 171
c-89 0 -159 -78 -182 -161c-6 -21 -8 -44 -8 -68v-244h-42z" />
    <glyph glyph-name="n" unicode="n" horiz-adv-x="586" 
d="M88 0v500h42v-88c0 -23 -4 -41 -4 -41h2c17 47 87 141 212 141c130 0 165 -77 165 -195v-317h-42v302c0 87 -11 169 -123 169c-94 0 -177 -66 -202 -159c-6 -21 -8 -44 -8 -68v-244h-42z" />
    <glyph glyph-name="o" unicode="o" horiz-adv-x="620" 
d="M51 253c0 146 116 259 259 259s259 -113 259 -259c0 -149 -116 -265 -259 -265s-259 116 -259 265zM95 253c0 -127 96 -224 215 -224s215 97 215 224c0 124 -96 218 -215 218s-215 -94 -215 -218z" />
    <glyph glyph-name="p" unicode="p" horiz-adv-x="579" 
d="M88 -200v700h42v-60c0 -23 -3 -40 -3 -40h2s41 112 180 112c134 0 216 -107 216 -262c0 -159 -93 -262 -222 -262c-130 0 -175 113 -175 113h-2s4 -18 4 -44v-257h-42zM129 249c0 -111 62 -220 174 -220c98 0 178 81 178 221c0 135 -72 221 -174 221
c-92 0 -178 -65 -178 -222z" />
    <glyph glyph-name="q" unicode="q" horiz-adv-x="580" 
d="M55 250c0 159 93 262 224 262c126 0 172 -112 172 -112h2s-3 17 -3 40v60h42v-700h-42v257c0 26 4 44 4 44h-2s-43 -113 -181 -113c-134 0 -216 107 -216 262zM99 250c0 -135 72 -221 174 -221c92 0 178 65 178 222c0 111 -57 220 -174 220c-98 0 -178 -81 -178 -221z
" />
    <glyph glyph-name="r" unicode="r" horiz-adv-x="338" 
d="M88 0v500h42v-95c0 -23 -4 -41 -4 -41h2c25 77 81 140 160 140c15 0 29 -3 29 -3v-42s-12 2 -23 2c-78 0 -127 -66 -149 -140c-11 -35 -15 -72 -15 -105v-216h-42z" />
    <glyph glyph-name="s" unicode="s" horiz-adv-x="436" 
d="M45 60l27 32s56 -63 155 -63c61 0 115 32 115 94c0 127 -275 91 -275 254c0 89 75 135 160 135c102 0 148 -54 148 -54l-25 -34s-41 47 -126 47c-57 0 -113 -26 -113 -91c0 -130 275 -91 275 -257c0 -80 -68 -135 -160 -135c-121 0 -181 72 -181 72z" />
    <glyph glyph-name="t" unicode="t" horiz-adv-x="314" 
d="M104 181v278h-66v38h66v142h42v-142h131v-38h-131v-275c0 -132 79 -149 119 -149c14 0 23 2 23 2v-39s-10 -2 -25 -2c-52 0 -159 19 -159 185z" />
    <glyph glyph-name="u" unicode="u" horiz-adv-x="581" 
d="M81 183v317h42v-302c0 -87 11 -169 123 -169c125 0 205 110 205 227v244h42v-500h-42v88c0 23 4 41 4 41h-2c-17 -47 -86 -141 -207 -141c-123 0 -165 68 -165 195z" />
    <glyph glyph-name="v" unicode="v" horiz-adv-x="469" 
d="M215 0l-197 500h45l154 -392c9 -24 17 -54 17 -54h2s8 30 17 54l154 392h44l-196 -500h-40z" />
    <glyph glyph-name="w" unicode="w" horiz-adv-x="797" 
d="M197 0l-176 500h45l136 -392c8 -24 17 -54 17 -54h2s9 30 17 54l137 390h47l137 -390c8 -24 17 -54 17 -54h2s8 29 17 54l136 392h45l-176 -500h-45l-139 388c-9 24 -17 54 -17 54h-2s-8 -30 -17 -54l-138 -388h-45z" />
    <glyph glyph-name="x" unicode="x" horiz-adv-x="476" 
d="M29 0l180 264l-161 236h51l121 -182c8 -13 17 -28 17 -28h2s9 15 17 28l121 182h51l-161 -236l180 -264h-52l-138 207c-9 14 -18 29 -18 29h-2s-8 -14 -18 -29l-138 -207h-52z" />
    <glyph glyph-name="y" unicode="y" horiz-adv-x="489" 
d="M8 -182l19 36s28 -24 62 -24c48 0 78 43 98 90l36 83l-207 497h45l165 -399c10 -24 18 -47 18 -47h2s7 23 17 47l165 399h45l-257 -617c-22 -52 -64 -93 -127 -93c-48 0 -81 28 -81 28z" />
    <glyph glyph-name="z" unicode="z" horiz-adv-x="501" 
d="M44 0v34l303 381c18 23 39 46 39 46v2s-18 -2 -51 -2h-278v39h386v-34l-304 -381c-18 -23 -40 -46 -40 -46v-2s19 2 52 2h303v-39h-410z" />
    <glyph glyph-name="braceleft" unicode="{" horiz-adv-x="325" 
d="M140 88v94c0 107 -85 119 -85 119v40s85 12 85 119v81c0 170 104 183 136 183h9v-39h-6c-23 0 -96 -10 -96 -143v-93c0 -97 -79 -127 -79 -127v-2s79 -26 79 -127v-106c0 -133 73 -143 96 -143h6v-39s-3 -1 -9 -1c-32 0 -136 13 -136 184z" />
    <glyph glyph-name="bar" unicode="|" horiz-adv-x="265" 
d="M111 -155v940h43v-940h-43z" />
    <glyph glyph-name="braceright" unicode="}" horiz-adv-x="325" 
d="M40 -56h6c23 0 96 10 96 143v106c0 101 79 127 79 127v2s-79 30 -79 127v93c0 133 -73 143 -96 143h-6v39h9c32 0 136 -13 136 -183v-81c0 -107 85 -119 85 -119v-40s-85 -12 -85 -119v-94c0 -171 -104 -184 -136 -184c-6 0 -9 1 -9 1v39z" />
    <glyph glyph-name="asciitilde" unicode="~" horiz-adv-x="592" 
d="M79 213c0 104 50 144 115 144c114 0 113 -110 206 -110c67 0 75 72 75 106h40c0 -104 -50 -144 -115 -144c-114 0 -113 110 -206 110c-67 0 -75 -72 -75 -106h-40z" />
    <glyph glyph-name="exclamdown" unicode="&#xa1;" horiz-adv-x="261" 
d="M109 -200v525h43v-525h-43zM100 439v61h59v-61h-59z" />
    <glyph glyph-name="cent" unicode="&#xa2;" horiz-adv-x="567" 
d="M274 -13v84c-141 12 -209 133 -209 279s68 267 209 279v83h43v-83c87 -8 147 -63 185 -142l-41 -16c-33 69 -84 116 -163 116c-133 0 -188 -106 -188 -237s55 -237 188 -237c79 0 130 47 163 116l41 -16c-38 -79 -98 -135 -185 -142v-84h-43z" />
    <glyph glyph-name="sterling" unicode="&#xa3;" horiz-adv-x="585" 
d="M80 333v40h45v162c0 99 82 177 197 177c89 0 147 -51 147 -51l-29 -33s-49 42 -119 42c-100 0 -153 -65 -153 -139v-158h198v-40h-198v-293h351v-40h-459v40h65v293h-45z" />
    <glyph glyph-name="yen" unicode="&#xa5;" horiz-adv-x="598" 
d="M115 352v40h110l-185 308h49l166 -276c20 -34 43 -79 43 -79h2s22 45 43 79l166 276h49l-185 -308h108v-40h-132l-28 -48v-42h160v-40h-160v-222h-43v222h-163v40h163v42l-29 48h-134z" />
    <glyph glyph-name="section" unicode="&#xa7;" horiz-adv-x="390" 
d="M142 62l-67 474c-1 8 -2 17 -2 25c0 86 66 151 158 151c53 0 93 -33 93 -33l-26 -32s-29 24 -68 24c-63 0 -113 -44 -113 -113c0 -7 1 -14 2 -21l65 -475h-42zM63 -29l26 32s29 -24 68 -24c63 0 112 44 112 113c0 7 0 14 -1 21l-65 475h42l67 -474c1 -9 2 -17 2 -25
c0 -87 -67 -151 -158 -151c-53 0 -93 33 -93 33z" />
    <glyph glyph-name="dieresis" unicode="&#xa8;" horiz-adv-x="509" 
d="M300 788v73h46v-73h-46zM163 788v73h46v-73h-46z" />
    <glyph glyph-name="copyright" unicode="&#xa9;" horiz-adv-x="838" 
d="M65 350c0 202 157 362 352 362c198 0 356 -160 356 -362c0 -203 -158 -362 -356 -362c-195 0 -352 159 -352 362zM110 350c0 -181 134 -320 307 -320c176 0 311 139 311 320c0 180 -135 320 -311 320c-173 0 -307 -140 -307 -320zM214 349c0 105 73 211 215 211
c104 0 163 -88 163 -88l-33 -29s-48 74 -129 74c-114 0 -171 -83 -171 -167c0 -83 57 -167 171 -167c83 0 129 74 129 74l33 -29s-60 -88 -163 -88c-143 0 -215 104 -215 209z" />
    <glyph glyph-name="ordfeminine" unicode="&#xaa;" horiz-adv-x="428" 
d="M201 382c-54 0 -111 29 -111 93c0 108 137 111 194 111h14v4c0 61 -32 83 -76 83c-48 0 -86 -29 -86 -29l-22 30s42 36 109 36c74 0 114 -40 114 -120v-202h-39v51h-2s-30 -57 -95 -57zM202 419c61 0 96 65 96 121v10h-13c-45 0 -154 -1 -154 -71c0 -31 23 -60 71 -60z
M87 263v37h253v-37h-253z" />
    <glyph glyph-name="guillemotleft" unicode="&#xab;" horiz-adv-x="491" 
d="M214 282l164 206h53l-164 -206l164 -205h-53zM218 77l-164 205l164 206h53l-164 -206l164 -205h-53z" />
    <glyph glyph-name="logicalnot" unicode="&#xac;" horiz-adv-x="635" 
d="M90 343v40h456v-219h-42v179h-414z" />
    <glyph glyph-name="registered" unicode="&#xae;" horiz-adv-x="838" 
d="M65 350c0 202 157 362 352 362c198 0 356 -160 356 -362c0 -203 -158 -362 -356 -362c-195 0 -352 159 -352 362zM110 350c0 -181 134 -320 307 -320c176 0 311 139 311 320c0 180 -135 320 -311 320c-173 0 -307 -140 -307 -320zM301 150v400h133c68 0 116 -46 116 -116
c0 -59 -36 -97 -77 -107v-2s4 -5 13 -22l79 -153h-49l-85 167h-86v-167h-44zM345 355h84c46 0 76 30 76 79c0 48 -30 76 -76 76h-84v-155z" />
    <glyph glyph-name="macron" unicode="&#xaf;" horiz-adv-x="509" 
d="M135 786v40h239v-40h-239z" />
    <glyph glyph-name="degree" unicode="&#xb0;" horiz-adv-x="371" 
d="M185 449c-72 0 -130 58 -130 130s58 131 130 131s131 -59 131 -131s-59 -130 -131 -130zM185 489c50 0 88 40 88 90s-38 91 -88 91s-87 -41 -87 -91s37 -90 87 -90z" />
    <glyph glyph-name="plusminus" unicode="&#xb1;" horiz-adv-x="686" 
d="M85 263v40h237v263h43v-263h236v-40h-236v-263h-43v263h-237zM105 -113h476v-40h-476v40z" />
    <glyph glyph-name="twosuperior" unicode="&#xb2;" 
d="M55 423c-1 9 -2 19 -2 27c0 162 221 170 221 294c0 47 -36 87 -91 87c-57 0 -94 -50 -94 -50l-24 26s42 60 118 60c86 0 130 -58 130 -123c0 -150 -217 -154 -221 -285h229v-36h-266z" />
    <glyph glyph-name="threesuperior" unicode="&#xb3;" 
d="M184 413c-95 0 -138 65 -138 65l28 26s35 -55 111 -55c49 0 103 42 103 101c0 61 -55 96 -107 96h-32l-11 24l108 127c11 13 25 25 25 25v2s-18 -3 -38 -3h-164v36h255v-26l-128 -150c54 -4 131 -35 131 -131c0 -77 -66 -137 -143 -137z" />
    <glyph glyph-name="acute" unicode="&#xb4;" horiz-adv-x="509" 
d="M193 750l67 111h56l-79 -111h-44z" />
    <glyph glyph-name="mu" unicode="&#xb5;" horiz-adv-x="598" 
d="M93 -200v700h42v-302c0 -87 11 -169 123 -169c125 0 205 110 205 227v244h42v-500h-42v83c0 23 2 41 2 41h-2s-52 -136 -205 -136c-98 0 -127 51 -127 51h-2s6 -51 6 -72v-167h-42z" />
    <glyph glyph-name="mu" unicode="&#x3bc;" horiz-adv-x="598" 
d="M93 -200v700h42v-302c0 -87 11 -169 123 -169c125 0 205 110 205 227v244h42v-500h-42v83c0 23 2 41 2 41h-2s-52 -136 -205 -136c-98 0 -127 51 -127 51h-2s6 -51 6 -72v-167h-42z" />
    <glyph glyph-name="paragraph" unicode="&#xb6;" horiz-adv-x="551" 
d="M294 -50v291c-129 0 -240 101 -240 230s110 229 239 229h210v-40h-167v-710h-42zM398 -50v647h42v-647h-42z" />
    <glyph glyph-name="periodcentered" unicode="&#xb7;" horiz-adv-x="273" 
d="M106 255v63h61v-63h-61z" />
    <glyph glyph-name="cedilla" unicode="&#xb8;" horiz-adv-x="509" 
d="M233 18l32 -5v-8l-12 -65c41 -6 69 -32 69 -68c0 -55 -44 -76 -91 -76c-27 0 -44 4 -44 4v38s18 -5 41 -5c27 0 54 8 54 37c0 23 -22 38 -61 38c-6 0 -12 -1 -12 -1z" />
    <glyph glyph-name="onesuperior" unicode="&#xb9;" 
d="M77 423v36h96v325c0 11 1 22 1 22h-1s-4 -8 -23 -27l-44 -43l-26 27l93 94h38v-398h93v-36h-227z" />
    <glyph glyph-name="ordmasculine" unicode="&#xba;" horiz-adv-x="476" 
d="M237 383c-90 0 -163 72 -163 166c0 91 73 162 163 162s163 -71 163 -162c0 -94 -73 -166 -163 -166zM237 420c69 0 124 55 124 129c0 72 -55 125 -124 125s-124 -53 -124 -125c0 -74 55 -129 124 -129zM92 263v37h294v-37h-294z" />
    <glyph glyph-name="guillemotright" unicode="&#xbb;" horiz-adv-x="491" 
d="M220 77l164 205l-164 206h53l164 -206l-164 -205h-53zM60 77l164 205l-164 206h53l164 -206l-164 -205h-53z" />
    <glyph glyph-name="onequarter" unicode="&#xbc;" horiz-adv-x="971" 
d="M831 0v121h-215v26l222 287h31v-277h68v-36h-68v-121h-38zM671 157h160v147c0 28 3 65 3 65h-2s-17 -27 -35 -50l-126 -160v-2zM133 266v36h96v325c0 11 1 22 1 22h-1s-4 -8 -23 -27l-44 -43l-26 27l93 94h38v-398h93v-36h-227zM365 0h-44l336 700h43z" />
    <glyph glyph-name="onehalf" unicode="&#xbd;" horiz-adv-x="919" 
d="M296 0h-44l336 700h43zM64 266v36h96v325c0 11 1 22 1 22h-1s-4 -8 -23 -27l-44 -43l-26 27l93 94h38v-398h93v-36h-227zM577 0c-1 9 -2 19 -2 27c0 162 221 170 221 294c0 47 -36 87 -91 87c-57 0 -94 -50 -94 -50l-24 26s42 60 118 60c86 0 130 -58 130 -123
c0 -150 -217 -154 -221 -285h229v-36h-266z" />
    <glyph glyph-name="threequarters" unicode="&#xbe;" horiz-adv-x="955" 
d="M191 256c-95 0 -138 65 -138 65l28 26s35 -55 111 -55c49 0 103 42 103 101c0 61 -55 96 -107 96h-32l-11 24l108 127c11 13 25 25 25 25v2s-18 -3 -38 -3h-164v36h255v-26l-128 -150c54 -4 131 -35 131 -131c0 -77 -66 -137 -143 -137zM320 0h-44l336 700h43zM786 0v121
h-215v26l222 287h31v-277h68v-36h-68v-121h-38zM626 157h160v147c0 28 3 65 3 65h-2s-17 -27 -35 -50l-126 -160v-2z" />
    <glyph glyph-name="questiondown" unicode="&#xbf;" horiz-adv-x="429" 
d="M48 -38c0 166 181 178 181 321v42h43v-42c0 -164 -179 -180 -179 -322c0 -72 59 -129 146 -129c73 0 127 42 127 42l23 -34s-59 -50 -149 -50c-115 0 -192 74 -192 172zM221 439v61h59v-61h-59z" />
    <glyph glyph-name="Agrave" unicode="&#xc0;" horiz-adv-x="606" 
d="M542 0l-91 242h-297l-90 -242h-46l262 700h46l262 -700h-46zM304 650h-2s-15 -54 -26 -84l-107 -284h267l-106 284c-11 30 -26 84 -26 84zM281 750l-79 111h56l67 -111h-44z" />
    <glyph glyph-name="Aacute" unicode="&#xc1;" horiz-adv-x="606" 
d="M542 0l-91 242h-297l-90 -242h-46l262 700h46l262 -700h-46zM304 650h-2s-15 -54 -26 -84l-107 -284h267l-106 284c-11 30 -26 84 -26 84zM280 750l67 111h56l-79 -111h-44z" />
    <glyph glyph-name="Acircumflex" unicode="&#xc2;" horiz-adv-x="606" 
d="M542 0l-91 242h-297l-90 -242h-46l262 700h46l262 -700h-46zM304 650h-2s-15 -54 -26 -84l-107 -284h267l-106 284c-11 30 -26 84 -26 84zM197 750l80 111h52l80 -111h-49l-56 80h-2l-56 -80h-49z" />
    <glyph glyph-name="Atilde" unicode="&#xc3;" horiz-adv-x="606" 
d="M542 0l-91 242h-297l-90 -242h-46l262 700h46l262 -700h-46zM304 650h-2s-15 -54 -26 -84l-107 -284h267l-106 284c-11 30 -26 84 -26 84zM159 753c0 71 28 108 83 108c67 0 79 -74 126 -74c35 0 40 48 40 71h40c0 -71 -28 -108 -83 -108c-67 0 -79 74 -126 74
c-35 0 -40 -48 -40 -71h-40z" />
    <glyph glyph-name="Adieresis" unicode="&#xc4;" horiz-adv-x="606" 
d="M542 0l-91 242h-297l-90 -242h-46l262 700h46l262 -700h-46zM304 650h-2s-15 -54 -26 -84l-107 -284h267l-106 284c-11 30 -26 84 -26 84zM349 788v73h46v-73h-46zM212 788v73h46v-73h-46z" />
    <glyph glyph-name="Aring" unicode="&#xc5;" horiz-adv-x="606" 
d="M542 0l-91 242h-297l-90 -242h-46l262 700h46l262 -700h-46zM304 650h-2s-15 -54 -26 -84l-107 -284h267l-106 284c-11 30 -26 84 -26 84zM303 740c-38 0 -67 29 -67 67s29 67 67 67s67 -29 67 -67s-29 -67 -67 -67zM303 775c19 0 32 13 32 32c0 20 -13 33 -32 33
s-32 -13 -32 -33c0 -19 13 -32 32 -32z" />
    <glyph glyph-name="AE" unicode="&#xc6;" horiz-adv-x="832" 
d="M16 0l287 700h449v-40h-340v-287h279v-40h-279v-293h359v-40h-402v333h-171l-136 -333h-46zM333 660l-118 -287h154v287h-36z" />
    <glyph glyph-name="Ccedilla" unicode="&#xc7;" horiz-adv-x="735" 
d="M62 355c0 203 150 357 347 357c166 0 250 -88 250 -88l-26 -32s-83 79 -223 79c-172 0 -303 -135 -303 -316c0 -182 130 -326 306 -326c150 0 237 95 237 95l27 -30s-92 -103 -257 -106l-9 -48c41 -6 69 -32 69 -68c0 -55 -44 -76 -91 -76c-27 0 -44 4 -44 4v38
s18 -5 41 -5c27 0 54 8 54 37c0 23 -22 38 -61 38c-6 0 -12 -1 -12 -1l17 82c-189 14 -322 172 -322 366z" />
    <glyph glyph-name="Egrave" unicode="&#xc8;" horiz-adv-x="571" 
d="M108 0v700h383v-40h-340v-287h279v-40h-279v-293h359v-40h-402zM290 750l-79 111h56l67 -111h-44z" />
    <glyph glyph-name="Eacute" unicode="&#xc9;" horiz-adv-x="571" 
d="M108 0v700h383v-40h-340v-287h279v-40h-279v-293h359v-40h-402zM289 750l67 111h56l-79 -111h-44z" />
    <glyph glyph-name="Ecircumflex" unicode="&#xca;" horiz-adv-x="571" 
d="M108 0v700h383v-40h-340v-287h279v-40h-279v-293h359v-40h-402zM206 750l80 111h52l80 -111h-49l-56 80h-2l-56 -80h-49z" />
    <glyph glyph-name="Edieresis" unicode="&#xcb;" horiz-adv-x="571" 
d="M108 0v700h383v-40h-340v-287h279v-40h-279v-293h359v-40h-402zM358 788v73h46v-73h-46zM221 788v73h46v-73h-46z" />
    <glyph glyph-name="Igrave" unicode="&#xcc;" horiz-adv-x="259" 
d="M108 0v700h43v-700h-43zM108 750l-79 111h56l67 -111h-44z" />
    <glyph glyph-name="Iacute" unicode="&#xcd;" horiz-adv-x="259" 
d="M108 0v700h43v-700h-43zM107 750l67 111h56l-79 -111h-44z" />
    <glyph glyph-name="Icircumflex" unicode="&#xce;" horiz-adv-x="259" 
d="M108 0v700h43v-700h-43zM24 750l80 111h52l80 -111h-49l-56 80h-2l-56 -80h-49z" />
    <glyph glyph-name="Idieresis" unicode="&#xcf;" horiz-adv-x="259" 
d="M108 0v700h43v-700h-43zM176 788v73h46v-73h-46zM39 788v73h46v-73h-46z" />
    <glyph glyph-name="Eth" unicode="&#xd0;" horiz-adv-x="753" 
d="M60 333v40h60v327h220c208 0 349 -128 349 -350c0 -223 -141 -350 -349 -350h-220v333h-60zM163 40h170c186 0 311 109 311 310c0 200 -125 310 -311 310h-170v-287h183v-40h-183v-293z" />
    <glyph glyph-name="Ntilde" unicode="&#xd1;" horiz-adv-x="752" 
d="M108 0v700h40l399 -549c23 -32 57 -88 57 -88h2s-5 53 -5 88v549h43v-700h-40l-399 549c-23 32 -57 88 -57 88h-2s5 -53 5 -88v-549h-43zM232 753c0 71 28 108 83 108c67 0 79 -74 126 -74c35 0 40 48 40 71h40c0 -71 -28 -108 -83 -108c-67 0 -79 74 -126 74
c-35 0 -40 -48 -40 -71h-40z" />
    <glyph glyph-name="Ograve" unicode="&#xd2;" horiz-adv-x="826" 
d="M59 355c0 201 159 357 354 357s354 -156 354 -357c0 -206 -159 -367 -354 -367s-354 161 -354 367zM104 355c0 -184 138 -326 309 -326s309 142 309 326c0 179 -138 316 -309 316s-309 -137 -309 -316zM391 750l-79 111h56l67 -111h-44z" />
    <glyph glyph-name="Oacute" unicode="&#xd3;" horiz-adv-x="826" 
d="M59 355c0 201 159 357 354 357s354 -156 354 -357c0 -206 -159 -367 -354 -367s-354 161 -354 367zM104 355c0 -184 138 -326 309 -326s309 142 309 326c0 179 -138 316 -309 316s-309 -137 -309 -316zM390 750l67 111h56l-79 -111h-44z" />
    <glyph glyph-name="Ocircumflex" unicode="&#xd4;" horiz-adv-x="826" 
d="M59 355c0 201 159 357 354 357s354 -156 354 -357c0 -206 -159 -367 -354 -367s-354 161 -354 367zM104 355c0 -184 138 -326 309 -326s309 142 309 326c0 179 -138 316 -309 316s-309 -137 -309 -316zM307 750l80 111h52l80 -111h-49l-56 80h-2l-56 -80h-49z" />
    <glyph glyph-name="Otilde" unicode="&#xd5;" horiz-adv-x="826" 
d="M59 355c0 201 159 357 354 357s354 -156 354 -357c0 -206 -159 -367 -354 -367s-354 161 -354 367zM104 355c0 -184 138 -326 309 -326s309 142 309 326c0 179 -138 316 -309 316s-309 -137 -309 -316zM269 753c0 71 28 108 83 108c67 0 79 -74 126 -74c35 0 40 48 40 71
h40c0 -71 -28 -108 -83 -108c-67 0 -79 74 -126 74c-35 0 -40 -48 -40 -71h-40z" />
    <glyph glyph-name="Odieresis" unicode="&#xd6;" horiz-adv-x="826" 
d="M59 355c0 201 159 357 354 357s354 -156 354 -357c0 -206 -159 -367 -354 -367s-354 161 -354 367zM104 355c0 -184 138 -326 309 -326s309 142 309 326c0 179 -138 316 -309 316s-309 -137 -309 -316zM459 788v73h46v-73h-46zM322 788v73h46v-73h-46z" />
    <glyph glyph-name="multiply" unicode="&#xd7;" horiz-adv-x="658" 
d="M78 28l224 255l-224 255l28 28l223 -253l223 253l28 -28l-225 -255l225 -255l-28 -28l-223 253l-223 -253z" />
    <glyph glyph-name="Oslash" unicode="&#xd8;" horiz-adv-x="831" 
d="M62 355c0 201 159 357 354 357c71 0 136 -21 192 -57l49 69l34 -25l-49 -69c78 -65 128 -163 128 -275c0 -206 -159 -367 -354 -367c-71 0 -136 21 -192 58l-49 -69l-35 24l50 70c-78 67 -128 168 -128 284zM725 355c0 98 -42 184 -108 241l-369 -516
c48 -33 106 -51 168 -51c171 0 309 142 309 326zM107 355c0 -101 42 -190 108 -249l368 515c-48 32 -105 50 -167 50c-171 0 -309 -137 -309 -316z" />
    <glyph glyph-name="Ugrave" unicode="&#xd9;" horiz-adv-x="719" 
d="M98 240v460h43v-458c0 -132 86 -213 218 -213s219 81 219 215v456h43v-460c0 -154 -107 -252 -261 -252s-262 98 -262 252zM337 750l-79 111h56l67 -111h-44z" />
    <glyph glyph-name="Uacute" unicode="&#xda;" horiz-adv-x="719" 
d="M98 240v460h43v-458c0 -132 86 -213 218 -213s219 81 219 215v456h43v-460c0 -154 -107 -252 -261 -252s-262 98 -262 252zM336 750l67 111h56l-79 -111h-44z" />
    <glyph glyph-name="Ucircumflex" unicode="&#xdb;" horiz-adv-x="719" 
d="M98 240v460h43v-458c0 -132 86 -213 218 -213s219 81 219 215v456h43v-460c0 -154 -107 -252 -261 -252s-262 98 -262 252zM253 750l80 111h52l80 -111h-49l-56 80h-2l-56 -80h-49z" />
    <glyph glyph-name="Udieresis" unicode="&#xdc;" horiz-adv-x="719" 
d="M98 240v460h43v-458c0 -132 86 -213 218 -213s219 81 219 215v456h43v-460c0 -154 -107 -252 -261 -252s-262 98 -262 252zM405 788v73h46v-73h-46zM268 788v73h46v-73h-46z" />
    <glyph glyph-name="Yacute" unicode="&#xdd;" horiz-adv-x="556" 
d="M257 0v304l-238 396h49l166 -276c20 -34 43 -79 43 -79h2s22 45 43 79l166 276h49l-237 -396v-304h-43zM255 750l67 111h56l-79 -111h-44z" />
    <glyph glyph-name="Thorn" unicode="&#xde;" horiz-adv-x="594" 
d="M108 0v700h43v-130h187c122 0 213 -77 213 -204s-91 -206 -215 -206h-185v-160h-43zM151 200h185c102 0 170 61 170 166s-68 164 -170 164h-185v-330z" />
    <glyph glyph-name="germandbls" unicode="&#xdf;" horiz-adv-x="563" 
d="M88 0v532c0 117 95 180 188 180c104 0 161 -69 161 -138c0 -109 -121 -141 -121 -206c0 -73 211 -113 211 -240c0 -91 -75 -135 -154 -135c-97 0 -154 35 -154 35v46s63 -40 155 -40c57 0 109 29 109 94c0 106 -211 134 -211 238c0 90 121 120 121 208
c0 45 -39 97 -119 97c-71 0 -144 -51 -144 -142v-529h-42z" />
    <glyph glyph-name="agrave" unicode="&#xe0;" horiz-adv-x="513" 
d="M47 133c0 170 221 172 310 172h33v17c0 111 -57 149 -137 149c-87 0 -143 -48 -143 -48l-24 34s60 55 169 55c115 0 177 -64 177 -189v-323h-42v66c0 27 4 45 4 45h-2c1 0 -45 -123 -175 -123c-81 0 -170 45 -170 145zM91 136c0 -53 43 -109 128 -109
c109 0 171 113 171 212v27h-32c-85 0 -267 0 -267 -130zM233 589l-79 111h56l67 -111h-44z" />
    <glyph glyph-name="aacute" unicode="&#xe1;" horiz-adv-x="513" 
d="M47 133c0 170 221 172 310 172h33v17c0 111 -57 149 -137 149c-87 0 -143 -48 -143 -48l-24 34s60 55 169 55c115 0 177 -64 177 -189v-323h-42v66c0 27 4 45 4 45h-2c1 0 -45 -123 -175 -123c-81 0 -170 45 -170 145zM91 136c0 -53 43 -109 128 -109
c109 0 171 113 171 212v27h-32c-85 0 -267 0 -267 -130zM231 589l67 111h56l-79 -111h-44z" />
    <glyph glyph-name="acircumflex" unicode="&#xe2;" horiz-adv-x="513" 
d="M47 133c0 170 221 172 310 172h33v17c0 111 -57 149 -137 149c-87 0 -143 -48 -143 -48l-24 34s60 55 169 55c115 0 177 -64 177 -189v-323h-42v66c0 27 4 45 4 45h-2c1 0 -45 -123 -175 -123c-81 0 -170 45 -170 145zM91 136c0 -53 43 -109 128 -109
c109 0 171 113 171 212v27h-32c-85 0 -267 0 -267 -130zM149 589l80 111h52l80 -111h-49l-56 80h-2l-56 -80h-49z" />
    <glyph glyph-name="atilde" unicode="&#xe3;" horiz-adv-x="513" 
d="M47 133c0 170 221 172 310 172h33v17c0 111 -57 149 -137 149c-87 0 -143 -48 -143 -48l-24 34s60 55 169 55c115 0 177 -64 177 -189v-323h-42v66c0 27 4 45 4 45h-2c1 0 -45 -123 -175 -123c-81 0 -170 45 -170 145zM91 136c0 -53 43 -109 128 -109
c109 0 171 113 171 212v27h-32c-85 0 -267 0 -267 -130zM111 592c0 71 28 108 83 108c67 0 79 -74 126 -74c35 0 40 48 40 71h40c0 -71 -28 -108 -83 -108c-67 0 -79 74 -126 74c-35 0 -40 -48 -40 -71h-40z" />
    <glyph glyph-name="adieresis" unicode="&#xe4;" horiz-adv-x="513" 
d="M47 133c0 170 221 172 310 172h33v17c0 111 -57 149 -137 149c-87 0 -143 -48 -143 -48l-24 34s60 55 169 55c115 0 177 -64 177 -189v-323h-42v66c0 27 4 45 4 45h-2c1 0 -45 -123 -175 -123c-81 0 -170 45 -170 145zM91 136c0 -53 43 -109 128 -109
c109 0 171 113 171 212v27h-32c-85 0 -267 0 -267 -130zM301 627v73h46v-73h-46zM164 627v73h46v-73h-46z" />
    <glyph glyph-name="aring" unicode="&#xe5;" horiz-adv-x="513" 
d="M47 133c0 170 221 172 310 172h33v17c0 111 -57 149 -137 149c-87 0 -143 -48 -143 -48l-24 34s60 55 169 55c115 0 177 -64 177 -189v-323h-42v66c0 27 4 45 4 45h-2c1 0 -45 -123 -175 -123c-81 0 -170 45 -170 145zM91 136c0 -53 43 -109 128 -109
c109 0 171 113 171 212v27h-32c-85 0 -267 0 -267 -130zM255 579c-38 0 -67 29 -67 67s29 67 67 67s67 -29 67 -67s-29 -67 -67 -67zM255 614c19 0 32 13 32 32c0 20 -13 33 -32 33s-32 -13 -32 -33c0 -19 13 -32 32 -32z" />
    <glyph glyph-name="ae" unicode="&#xe6;" horiz-adv-x="878" 
d="M48 133c0 164 183 167 302 167h40v22c0 111 -57 149 -141 149s-139 -48 -139 -48l-24 34s59 55 165 55c105 0 155 -47 172 -117h2c41 78 113 117 198 117c133 0 202 -103 202 -223c0 -11 -2 -28 -2 -28h-391c0 -150 87 -232 204 -232c96 0 155 63 155 63l23 -35
s-70 -69 -178 -69c-104 0 -189 57 -225 153h-2c-6 -27 -52 -153 -189 -153c-91 0 -172 49 -172 145zM436 300h345c-5 122 -82 172 -161 172c-92 0 -167 -57 -184 -172zM92 136c0 -56 44 -109 128 -109c109 0 170 113 170 212v22h-69c-92 0 -229 -7 -229 -125z" />
    <glyph glyph-name="ccedilla" unicode="&#xe7;" horiz-adv-x="552" 
d="M54 249c0 159 119 263 258 263c119 0 179 -71 179 -71l-26 -34s-57 64 -153 64c-117 0 -214 -87 -214 -222c0 -133 97 -220 214 -220c110 0 167 72 167 72l22 -35s-64 -76 -184 -78l-9 -48c41 -6 69 -32 69 -68c0 -55 -44 -76 -91 -76c-27 0 -44 4 -44 4v38s18 -5 41 -5
c27 0 54 8 54 37c0 23 -22 38 -61 38c-6 0 -12 -1 -12 -1l18 83c-128 13 -228 111 -228 259z" />
    <glyph glyph-name="egrave" unicode="&#xe8;" horiz-adv-x="553" 
d="M53 249c0 169 115 263 243 263c136 0 204 -107 204 -228c0 -11 -2 -27 -2 -27h-401c0 -145 98 -228 214 -228c96 0 155 63 155 63l23 -35s-70 -69 -178 -69c-141 0 -258 102 -258 261zM100 296h356c-5 122 -78 177 -161 177c-92 0 -177 -60 -195 -177zM277 589l-79 111
h56l67 -111h-44z" />
    <glyph glyph-name="eacute" unicode="&#xe9;" horiz-adv-x="553" 
d="M53 249c0 169 115 263 243 263c136 0 204 -107 204 -228c0 -11 -2 -27 -2 -27h-401c0 -145 98 -228 214 -228c96 0 155 63 155 63l23 -35s-70 -69 -178 -69c-141 0 -258 102 -258 261zM100 296h356c-5 122 -78 177 -161 177c-92 0 -177 -60 -195 -177zM275 589l67 111h56
l-79 -111h-44z" />
    <glyph glyph-name="ecircumflex" unicode="&#xea;" horiz-adv-x="553" 
d="M53 249c0 169 115 263 243 263c136 0 204 -107 204 -228c0 -11 -2 -27 -2 -27h-401c0 -145 98 -228 214 -228c96 0 155 63 155 63l23 -35s-70 -69 -178 -69c-141 0 -258 102 -258 261zM100 296h356c-5 122 -78 177 -161 177c-92 0 -177 -60 -195 -177zM192 589l80 111h52
l80 -111h-49l-56 80h-2l-56 -80h-49z" />
    <glyph glyph-name="edieresis" unicode="&#xeb;" horiz-adv-x="553" 
d="M53 249c0 169 115 263 243 263c136 0 204 -107 204 -228c0 -11 -2 -27 -2 -27h-401c0 -145 98 -228 214 -228c96 0 155 63 155 63l23 -35s-70 -69 -178 -69c-141 0 -258 102 -258 261zM100 296h356c-5 122 -78 177 -161 177c-92 0 -177 -60 -195 -177zM344 627v73h46v-73
h-46zM207 627v73h46v-73h-46z" />
    <glyph glyph-name="igrave" unicode="&#xec;" horiz-adv-x="218" 
d="M88 0v500h42v-500h-42zM88 589l-79 111h56l67 -111h-44z" />
    <glyph glyph-name="iacute" unicode="&#xed;" horiz-adv-x="218" 
d="M88 0v500h42v-500h-42zM87 589l67 111h56l-79 -111h-44z" />
    <glyph glyph-name="icircumflex" unicode="&#xee;" horiz-adv-x="218" 
d="M88 0v500h42v-500h-42zM4 589l80 111h52l80 -111h-49l-56 80h-2l-56 -80h-49z" />
    <glyph glyph-name="idieresis" unicode="&#xef;" horiz-adv-x="218" 
d="M88 0v500h42v-500h-42zM156 627v73h46v-73h-46zM19 627v73h46v-73h-46z" />
    <glyph glyph-name="eth" unicode="&#xf0;" horiz-adv-x="589" 
d="M55 230c0 120 80 238 241 238c110 0 162 -66 162 -66h2c-26 81 -74 139 -137 183l-172 -80l-17 37l146 68c-45 24 -97 43 -153 57l12 38c59 -15 127 -37 188 -74l123 58l17 -37l-101 -47c88 -67 156 -176 156 -335c0 -133 -74 -282 -242 -282c-144 0 -225 121 -225 242z
M99 230c0 -102 67 -202 183 -202c137 0 196 129 196 235c0 95 -73 165 -183 165c-134 0 -196 -100 -196 -198z" />
    <glyph glyph-name="ntilde" unicode="&#xf1;" horiz-adv-x="586" 
d="M88 0v500h42v-88c0 -23 -4 -41 -4 -41h2c17 47 87 141 212 141c130 0 165 -77 165 -195v-317h-42v302c0 87 -11 169 -123 169c-94 0 -177 -66 -202 -159c-6 -21 -8 -44 -8 -68v-244h-42zM164 592c0 71 28 108 83 108c67 0 79 -74 126 -74c35 0 40 48 40 71h40
c0 -71 -28 -108 -83 -108c-67 0 -79 74 -126 74c-35 0 -40 -48 -40 -71h-40z" />
    <glyph glyph-name="ograve" unicode="&#xf2;" horiz-adv-x="620" 
d="M51 253c0 146 116 259 259 259s259 -113 259 -259c0 -149 -116 -265 -259 -265s-259 116 -259 265zM95 253c0 -127 96 -224 215 -224s215 97 215 224c0 124 -96 218 -215 218s-215 -94 -215 -218zM288 589l-79 111h56l67 -111h-44z" />
    <glyph glyph-name="oacute" unicode="&#xf3;" horiz-adv-x="620" 
d="M51 253c0 146 116 259 259 259s259 -113 259 -259c0 -149 -116 -265 -259 -265s-259 116 -259 265zM95 253c0 -127 96 -224 215 -224s215 97 215 224c0 124 -96 218 -215 218s-215 -94 -215 -218zM287 589l67 111h56l-79 -111h-44z" />
    <glyph glyph-name="ocircumflex" unicode="&#xf4;" horiz-adv-x="620" 
d="M51 253c0 146 116 259 259 259s259 -113 259 -259c0 -149 -116 -265 -259 -265s-259 116 -259 265zM95 253c0 -127 96 -224 215 -224s215 97 215 224c0 124 -96 218 -215 218s-215 -94 -215 -218zM204 589l80 111h52l80 -111h-49l-56 80h-2l-56 -80h-49z" />
    <glyph glyph-name="otilde" unicode="&#xf5;" horiz-adv-x="620" 
d="M51 253c0 146 116 259 259 259s259 -113 259 -259c0 -149 -116 -265 -259 -265s-259 116 -259 265zM95 253c0 -127 96 -224 215 -224s215 97 215 224c0 124 -96 218 -215 218s-215 -94 -215 -218zM166 592c0 71 28 108 83 108c67 0 79 -74 126 -74c35 0 40 48 40 71h40
c0 -71 -28 -108 -83 -108c-67 0 -79 74 -126 74c-35 0 -40 -48 -40 -71h-40z" />
    <glyph glyph-name="odieresis" unicode="&#xf6;" horiz-adv-x="620" 
d="M51 253c0 146 116 259 259 259s259 -113 259 -259c0 -149 -116 -265 -259 -265s-259 116 -259 265zM95 253c0 -127 96 -224 215 -224s215 97 215 224c0 124 -96 218 -215 218s-215 -94 -215 -218zM356 627v73h46v-73h-46zM219 627v73h46v-73h-46z" />
    <glyph glyph-name="divide" unicode="&#xf7;" horiz-adv-x="662" 
d="M302 431v59h57v-59h-57zM93 263v40h476v-40h-476zM302 76v59h57v-59h-57z" />
    <glyph glyph-name="oslash" unicode="&#xf8;" horiz-adv-x="622" 
d="M52 253c0 146 116 259 259 259c50 0 98 -14 138 -39l38 53l34 -26l-38 -53c53 -47 87 -116 87 -194c0 -149 -116 -265 -259 -265c-48 0 -92 12 -130 35l-37 -52l-34 26l36 51c-58 48 -94 121 -94 205zM96 253c0 -70 29 -130 74 -171l255 357c-33 20 -72 32 -114 32
c-119 0 -215 -94 -215 -218zM526 253c0 64 -26 120 -68 159l-253 -355c31 -18 67 -28 106 -28c119 0 215 97 215 224z" />
    <glyph glyph-name="ugrave" unicode="&#xf9;" horiz-adv-x="581" 
d="M81 183v317h42v-302c0 -87 11 -169 123 -169c125 0 205 110 205 227v244h42v-500h-42v88c0 23 4 41 4 41h-2c-17 -47 -86 -141 -207 -141c-123 0 -165 68 -165 195zM266 589l-79 111h56l67 -111h-44z" />
    <glyph glyph-name="uacute" unicode="&#xfa;" horiz-adv-x="581" 
d="M81 183v317h42v-302c0 -87 11 -169 123 -169c125 0 205 110 205 227v244h42v-500h-42v88c0 23 4 41 4 41h-2c-17 -47 -86 -141 -207 -141c-123 0 -165 68 -165 195zM264 589l67 111h56l-79 -111h-44z" />
    <glyph glyph-name="ucircumflex" unicode="&#xfb;" horiz-adv-x="581" 
d="M81 183v317h42v-302c0 -87 11 -169 123 -169c125 0 205 110 205 227v244h42v-500h-42v88c0 23 4 41 4 41h-2c-17 -47 -86 -141 -207 -141c-123 0 -165 68 -165 195zM181 589l80 111h52l80 -111h-49l-56 80h-2l-56 -80h-49z" />
    <glyph glyph-name="udieresis" unicode="&#xfc;" horiz-adv-x="581" 
d="M81 183v317h42v-302c0 -87 11 -169 123 -169c125 0 205 110 205 227v244h42v-500h-42v88c0 23 4 41 4 41h-2c-17 -47 -86 -141 -207 -141c-123 0 -165 68 -165 195zM333 627v73h46v-73h-46zM196 627v73h46v-73h-46z" />
    <glyph glyph-name="yacute" unicode="&#xfd;" horiz-adv-x="489" 
d="M8 -182l19 36s28 -24 62 -24c48 0 78 43 98 90l36 83l-207 497h45l165 -399c10 -24 18 -47 18 -47h2s7 23 17 47l165 399h45l-257 -617c-22 -52 -64 -93 -127 -93c-48 0 -81 28 -81 28zM222 589l67 111h56l-79 -111h-44z" />
    <glyph glyph-name="thorn" unicode="&#xfe;" horiz-adv-x="579" 
d="M88 -200v900h42v-255c0 -23 -1 -40 -1 -40h2s39 107 178 107c134 0 216 -107 216 -262c0 -159 -93 -262 -222 -262c-130 0 -173 108 -173 108h-2s2 -18 2 -44v-252h-42zM129 249c0 -111 62 -221 174 -221c98 0 178 82 178 222c0 135 -72 221 -174 221
c-92 0 -178 -65 -178 -222z" />
    <glyph glyph-name="ydieresis" unicode="&#xff;" horiz-adv-x="489" 
d="M8 -182l19 36s28 -24 62 -24c48 0 78 43 98 90l36 83l-207 497h45l165 -399c10 -24 18 -47 18 -47h2s7 23 17 47l165 399h45l-257 -617c-22 -52 -64 -93 -127 -93c-48 0 -81 28 -81 28zM291 627v73h46v-73h-46zM154 627v73h46v-73h-46z" />
    <glyph glyph-name="Amacron" unicode="&#x100;" horiz-adv-x="606" 
d="M542 0l-91 242h-297l-90 -242h-46l262 700h46l262 -700h-46zM304 650h-2s-15 -54 -26 -84l-107 -284h267l-106 284c-11 30 -26 84 -26 84zM184 786v40h239v-40h-239z" />
    <glyph glyph-name="amacron" unicode="&#x101;" horiz-adv-x="513" 
d="M47 133c0 170 221 172 310 172h33v17c0 111 -57 149 -137 149c-87 0 -143 -48 -143 -48l-24 34s60 55 169 55c115 0 177 -64 177 -189v-323h-42v66c0 27 4 45 4 45h-2c1 0 -45 -123 -175 -123c-81 0 -170 45 -170 145zM91 136c0 -53 43 -109 128 -109
c109 0 171 113 171 212v27h-32c-85 0 -267 0 -267 -130zM136 625v40h239v-40h-239z" />
    <glyph glyph-name="Abreve" unicode="&#x102;" horiz-adv-x="606" 
d="M542 0l-91 242h-297l-90 -242h-46l262 700h46l262 -700h-46zM304 650h-2s-15 -54 -26 -84l-107 -284h267l-106 284c-11 30 -26 84 -26 84zM303 747c-51 0 -101 32 -101 98v16h40v-14c0 -44 28 -62 61 -62c32 0 61 18 61 63v13h40v-16c0 -66 -50 -98 -101 -98z" />
    <glyph glyph-name="abreve" unicode="&#x103;" horiz-adv-x="513" 
d="M47 133c0 170 221 172 310 172h33v17c0 111 -57 149 -137 149c-87 0 -143 -48 -143 -48l-24 34s60 55 169 55c115 0 177 -64 177 -189v-323h-42v66c0 27 4 45 4 45h-2c1 0 -45 -123 -175 -123c-81 0 -170 45 -170 145zM91 136c0 -53 43 -109 128 -109
c109 0 171 113 171 212v27h-32c-85 0 -267 0 -267 -130zM255 586c-51 0 -101 32 -101 98v16h40v-14c0 -44 28 -62 61 -62c32 0 61 18 61 63v13h40v-16c0 -66 -50 -98 -101 -98z" />
    <glyph glyph-name="Aogonek" unicode="&#x104;" horiz-adv-x="606" 
d="M463 -113c0 59 57 104 77 117l-89 238h-297l-90 -242h-46l262 700h46l262 -700c-23 -17 -80 -63 -80 -109c0 -50 68 -56 68 -56l-9 -39s-104 6 -104 91zM304 650h-2s-15 -54 -26 -84l-107 -284h267l-106 284c-11 30 -26 84 -26 84z" />
    <glyph glyph-name="aogonek" unicode="&#x105;" horiz-adv-x="513" 
d="M47 133c0 170 221 172 310 172h33v17c0 111 -57 149 -137 149c-87 0 -143 -48 -143 -48l-24 34s60 55 169 55c115 0 177 -64 177 -189v-323c-23 -17 -80 -63 -80 -109c0 -50 68 -56 68 -56l-9 -39s-104 6 -104 91c0 69 77 118 83 121v53c0 27 2 45 2 45h-2
c1 0 -43 -118 -173 -118c-81 0 -170 45 -170 145zM91 136c0 -53 43 -109 128 -109c109 0 171 113 171 212v27h-32c-85 0 -267 0 -267 -130z" />
    <glyph glyph-name="Cacute" unicode="&#x106;" horiz-adv-x="734" 
d="M61 355c0 203 150 357 347 357c166 0 250 -88 250 -88l-26 -32s-83 79 -223 79c-172 0 -303 -135 -303 -316c0 -182 130 -326 306 -326c150 0 237 95 237 95l27 -30s-94 -106 -264 -106c-204 0 -351 164 -351 367zM380 750l67 111h56l-79 -111h-44z" />
    <glyph glyph-name="cacute" unicode="&#x107;" horiz-adv-x="551" 
d="M53 249c0 159 119 263 258 263c119 0 179 -71 179 -71l-26 -34s-57 64 -153 64c-117 0 -214 -87 -214 -222c0 -133 97 -220 214 -220c110 0 167 72 167 72l22 -35s-65 -78 -189 -78c-141 0 -258 102 -258 261zM270 589l67 111h56l-79 -111h-44z" />
    <glyph glyph-name="Ccircumflex" unicode="&#x108;" horiz-adv-x="734" 
d="M61 355c0 203 150 357 347 357c166 0 250 -88 250 -88l-26 -32s-83 79 -223 79c-172 0 -303 -135 -303 -316c0 -182 130 -326 306 -326c150 0 237 95 237 95l27 -30s-94 -106 -264 -106c-204 0 -351 164 -351 367zM297 750l80 111h52l80 -111h-49l-56 80h-2l-56 -80h-49z
" />
    <glyph glyph-name="ccircumflex" unicode="&#x109;" horiz-adv-x="551" 
d="M53 249c0 159 119 263 258 263c119 0 179 -71 179 -71l-26 -34s-57 64 -153 64c-117 0 -214 -87 -214 -222c0 -133 97 -220 214 -220c110 0 167 72 167 72l22 -35s-65 -78 -189 -78c-141 0 -258 102 -258 261zM187 589l80 111h52l80 -111h-49l-56 80h-2l-56 -80h-49z" />
    <glyph glyph-name="Cdotaccent" unicode="&#x10a;" horiz-adv-x="734" 
d="M61 355c0 203 150 357 347 357c166 0 250 -88 250 -88l-26 -32s-83 79 -223 79c-172 0 -303 -135 -303 -316c0 -182 130 -326 306 -326c150 0 237 95 237 95l27 -30s-94 -106 -264 -106c-204 0 -351 164 -351 367zM380 788v73h46v-73h-46z" />
    <glyph glyph-name="cdotaccent" unicode="&#x10b;" horiz-adv-x="551" 
d="M53 249c0 159 119 263 258 263c119 0 179 -71 179 -71l-26 -34s-57 64 -153 64c-117 0 -214 -87 -214 -222c0 -133 97 -220 214 -220c110 0 167 72 167 72l22 -35s-65 -78 -189 -78c-141 0 -258 102 -258 261zM270 627v73h46v-73h-46z" />
    <glyph glyph-name="Ccaron" unicode="&#x10c;" horiz-adv-x="734" 
d="M61 355c0 203 150 357 347 357c166 0 250 -88 250 -88l-26 -32s-83 79 -223 79c-172 0 -303 -135 -303 -316c0 -182 130 -326 306 -326c150 0 237 95 237 95l27 -30s-94 -106 -264 -106c-204 0 -351 164 -351 367zM377 750l-80 111h49l56 -80h2l56 80h49l-80 -111h-52z
" />
    <glyph glyph-name="ccaron" unicode="&#x10d;" horiz-adv-x="551" 
d="M53 249c0 159 119 263 258 263c119 0 179 -71 179 -71l-26 -34s-57 64 -153 64c-117 0 -214 -87 -214 -222c0 -133 97 -220 214 -220c110 0 167 72 167 72l22 -35s-65 -78 -189 -78c-141 0 -258 102 -258 261zM267 589l-80 111h49l56 -80h2l56 80h49l-80 -111h-52z" />
    <glyph glyph-name="Dcaron" unicode="&#x10e;" horiz-adv-x="741" 
d="M108 0v700h220c208 0 349 -128 349 -350c0 -223 -141 -350 -349 -350h-220zM151 40h170c186 0 311 109 311 310c0 200 -125 310 -311 310h-170v-620zM316 750l-80 111h49l56 -80h2l56 80h49l-80 -111h-52z" />
    <glyph glyph-name="dcaron" unicode="&#x10f;" horiz-adv-x="610" 
d="M55 250c0 159 93 262 224 262c126 0 173 -113 173 -113h2s-4 18 -4 41v260h42v-700h-42v63c0 23 4 38 4 38h-2s-43 -113 -181 -113c-134 0 -216 107 -216 262zM99 250c0 -135 72 -221 174 -221c92 0 178 65 178 222c0 111 -57 220 -174 220c-98 0 -178 -81 -178 -221z
M559 700h48c4 -17 6 -32 6 -47c0 -29 -8 -55 -22 -87h-39c11 29 18 53 18 78c0 17 -3 35 -11 56z" />
    <glyph glyph-name="Dcroat" unicode="&#x110;" horiz-adv-x="753" 
d="M60 333v40h60v327h220c208 0 349 -128 349 -350c0 -223 -141 -350 -349 -350h-220v333h-60zM163 40h170c186 0 311 109 311 310c0 200 -125 310 -311 310h-170v-287h183v-40h-183v-293z" />
    <glyph glyph-name="dcroat" unicode="&#x111;" horiz-adv-x="580" 
d="M317 569v40h133v91h42v-91h83v-40h-83v-569h-42v58c0 23 2 38 2 38h-2s-41 -108 -179 -108c-134 0 -216 107 -216 262c0 159 93 262 224 262c126 0 171 -108 171 -108h2s-2 18 -2 41v124h-133zM99 250c0 -135 72 -221 174 -221c92 0 178 65 178 222
c0 111 -57 221 -174 221c-98 0 -178 -82 -178 -222z" />
    <glyph glyph-name="Emacron" unicode="&#x112;" horiz-adv-x="571" 
d="M108 0v700h383v-40h-340v-287h279v-40h-279v-293h359v-40h-402zM193 786v40h239v-40h-239z" />
    <glyph glyph-name="emacron" unicode="&#x113;" horiz-adv-x="553" 
d="M53 249c0 169 115 263 243 263c136 0 204 -107 204 -228c0 -11 -2 -27 -2 -27h-401c0 -145 98 -228 214 -228c96 0 155 63 155 63l23 -35s-70 -69 -178 -69c-141 0 -258 102 -258 261zM100 296h356c-5 122 -78 177 -161 177c-92 0 -177 -60 -195 -177zM179 625v40h239
v-40h-239z" />
    <glyph glyph-name="Ebreve" unicode="&#x114;" horiz-adv-x="571" 
d="M108 0v700h383v-40h-340v-287h279v-40h-279v-293h359v-40h-402zM312 747c-51 0 -101 32 -101 98v16h40v-14c0 -44 28 -62 61 -62c32 0 61 18 61 63v13h40v-16c0 -66 -50 -98 -101 -98z" />
    <glyph glyph-name="ebreve" unicode="&#x115;" horiz-adv-x="553" 
d="M53 249c0 169 115 263 243 263c136 0 204 -107 204 -228c0 -11 -2 -27 -2 -27h-401c0 -145 98 -228 214 -228c96 0 155 63 155 63l23 -35s-70 -69 -178 -69c-141 0 -258 102 -258 261zM100 296h356c-5 122 -78 177 -161 177c-92 0 -177 -60 -195 -177zM298 586
c-51 0 -101 32 -101 98v16h40v-14c0 -44 28 -62 61 -62c32 0 61 18 61 63v13h40v-16c0 -66 -50 -98 -101 -98z" />
    <glyph glyph-name="Edotaccent" unicode="&#x116;" horiz-adv-x="571" 
d="M108 0v700h383v-40h-340v-287h279v-40h-279v-293h359v-40h-402zM289 788v73h46v-73h-46z" />
    <glyph glyph-name="edotaccent" unicode="&#x117;" horiz-adv-x="553" 
d="M53 249c0 169 115 263 243 263c136 0 204 -107 204 -228c0 -11 -2 -27 -2 -27h-401c0 -145 98 -228 214 -228c96 0 155 63 155 63l23 -35s-70 -69 -178 -69c-141 0 -258 102 -258 261zM100 296h356c-5 122 -78 177 -161 177c-92 0 -177 -60 -195 -177zM275 627v73h46v-73
h-46z" />
    <glyph glyph-name="Eogonek" unicode="&#x118;" horiz-adv-x="571" 
d="M108 0v700h383v-40h-340v-287h279v-40h-279v-293h359v-40c-23 -17 -80 -63 -80 -109c0 -50 68 -56 68 -56l-9 -39s-104 6 -104 91c0 53 47 93 71 111v2h-348z" />
    <glyph glyph-name="eogonek" unicode="&#x119;" horiz-adv-x="554" 
d="M53 249c0 169 115 263 243 263c136 0 204 -107 204 -228c0 -11 -2 -27 -2 -27h-401c0 -145 98 -228 214 -228c96 0 155 63 155 63l23 -35c-44 -42 -154 -92 -154 -166c0 -50 68 -56 68 -56l-9 -39s-104 6 -104 91c0 44 28 78 53 102v2c-10 -2 -20 -3 -32 -3
c-141 0 -258 102 -258 261zM100 296h356c-5 122 -78 177 -161 177c-92 0 -177 -60 -195 -177z" />
    <glyph glyph-name="Ecaron" unicode="&#x11a;" horiz-adv-x="571" 
d="M108 0v700h383v-40h-340v-287h279v-40h-279v-293h359v-40h-402zM286 750l-80 111h49l56 -80h2l56 80h49l-80 -111h-52z" />
    <glyph glyph-name="ecaron" unicode="&#x11b;" horiz-adv-x="553" 
d="M53 249c0 169 115 263 243 263c136 0 204 -107 204 -228c0 -11 -2 -27 -2 -27h-401c0 -145 98 -228 214 -228c96 0 155 63 155 63l23 -35s-70 -69 -178 -69c-141 0 -258 102 -258 261zM100 296h356c-5 122 -78 177 -161 177c-92 0 -177 -60 -195 -177zM272 589l-80 111
h49l56 -80h2l56 80h49l-80 -111h-52z" />
    <glyph glyph-name="Gcircumflex" unicode="&#x11c;" horiz-adv-x="757" 
d="M61 350c0 202 151 362 349 362c158 0 244 -79 244 -79l-26 -33s-84 71 -218 71c-176 0 -304 -140 -304 -321c0 -182 125 -321 298 -321c150 0 240 115 240 115v135h-125v40h168v-319h-43v61c0 15 1 30 1 30h-2s-84 -103 -239 -103c-195 0 -343 159 -343 362zM293 750
l80 111h52l80 -111h-49l-56 80h-2l-56 -80h-49z" />
    <glyph glyph-name="gcircumflex" unicode="&#x11d;" horiz-adv-x="573" 
d="M119 -134c0 0 62 -35 134 -35c107 0 190 51 190 172v58c0 23 4 41 4 41h-2c-30 -61 -85 -102 -168 -102c-130 0 -222 102 -222 258s85 254 215 254c142 0 174 -98 174 -98h2s-3 7 -3 19v67h42v-497c0 -153 -110 -213 -229 -213c-55 0 -108 14 -157 39zM280 41
c88 0 164 55 164 217c0 161 -76 213 -174 213c-107 0 -171 -78 -171 -213s74 -217 181 -217zM174 589l80 111h52l80 -111h-49l-56 80h-2l-56 -80h-49z" />
    <glyph glyph-name="Gbreve" unicode="&#x11e;" horiz-adv-x="757" 
d="M61 350c0 202 151 362 349 362c158 0 244 -79 244 -79l-26 -33s-84 71 -218 71c-176 0 -304 -140 -304 -321c0 -182 125 -321 298 -321c150 0 240 115 240 115v135h-125v40h168v-319h-43v61c0 15 1 30 1 30h-2s-84 -103 -239 -103c-195 0 -343 159 -343 362zM399 747
c-51 0 -101 32 -101 98v16h40v-14c0 -44 28 -62 61 -62c32 0 61 18 61 63v13h40v-16c0 -66 -50 -98 -101 -98z" />
    <glyph glyph-name="gbreve" unicode="&#x11f;" horiz-adv-x="573" 
d="M119 -134c0 0 62 -35 134 -35c107 0 190 51 190 172v58c0 23 4 41 4 41h-2c-30 -61 -85 -102 -168 -102c-130 0 -222 102 -222 258s85 254 215 254c142 0 174 -98 174 -98h2s-3 7 -3 19v67h42v-497c0 -153 -110 -213 -229 -213c-55 0 -108 14 -157 39zM280 41
c88 0 164 55 164 217c0 161 -76 213 -174 213c-107 0 -171 -78 -171 -213s74 -217 181 -217zM280 586c-51 0 -101 32 -101 98v16h40v-14c0 -44 28 -62 61 -62c32 0 61 18 61 63v13h40v-16c0 -66 -50 -98 -101 -98z" />
    <glyph glyph-name="Gdotaccent" unicode="&#x120;" horiz-adv-x="757" 
d="M61 350c0 202 151 362 349 362c158 0 244 -79 244 -79l-26 -33s-84 71 -218 71c-176 0 -304 -140 -304 -321c0 -182 125 -321 298 -321c150 0 240 115 240 115v135h-125v40h168v-319h-43v61c0 15 1 30 1 30h-2s-84 -103 -239 -103c-195 0 -343 159 -343 362zM376 788v73
h46v-73h-46z" />
    <glyph glyph-name="gdotaccent" unicode="&#x121;" horiz-adv-x="573" 
d="M119 -134c0 0 62 -35 134 -35c107 0 190 51 190 172v58c0 23 4 41 4 41h-2c-30 -61 -85 -102 -168 -102c-130 0 -222 102 -222 258s85 254 215 254c142 0 174 -98 174 -98h2s-3 7 -3 19v67h42v-497c0 -153 -110 -213 -229 -213c-55 0 -108 14 -157 39zM280 41
c88 0 164 55 164 217c0 161 -76 213 -174 213c-107 0 -171 -78 -171 -213s74 -217 181 -217zM257 627v73h46v-73h-46z" />
    <glyph glyph-name="Gcommaaccent" unicode="&#x122;" horiz-adv-x="757" 
d="M61 350c0 202 151 362 349 362c158 0 244 -79 244 -79l-26 -33s-84 71 -218 71c-176 0 -304 -140 -304 -321c0 -182 125 -321 298 -321c150 0 240 115 240 115v135h-125v40h168v-319h-43v61c0 15 1 30 1 30h-2s-84 -103 -239 -103c-195 0 -343 159 -343 362zM380 -66h48
c4 -17 6 -32 6 -47c0 -29 -8 -55 -22 -87h-39c11 29 18 53 18 78c0 17 -3 35 -11 56z" />
    <glyph glyph-name="gcommaaccent" unicode="&#x123;" horiz-adv-x="573" 
d="M119 -134c0 0 62 -35 134 -35c107 0 190 51 190 172v58c0 23 4 41 4 41h-2c-30 -61 -85 -102 -168 -102c-130 0 -222 102 -222 258s85 254 215 254c142 0 174 -98 174 -98h2s-3 7 -3 19v67h42v-497c0 -153 -110 -213 -229 -213c-55 0 -108 14 -157 39zM280 41
c88 0 164 55 164 217c0 161 -76 213 -174 213c-107 0 -171 -78 -171 -213s74 -217 181 -217zM306 566h-48c-4 17 -6 32 -6 47c0 29 8 55 22 87h39c-11 -29 -18 -53 -18 -78c0 -17 3 -35 11 -56z" />
    <glyph glyph-name="Hcircumflex" unicode="&#x124;" horiz-adv-x="746" 
d="M108 0v700h43v-329h444v329h43v-700h-43v331h-444v-331h-43zM267 750l80 111h52l80 -111h-49l-56 80h-2l-56 -80h-49z" />
    <glyph glyph-name="hcircumflex" unicode="&#x125;" horiz-adv-x="586" 
d="M88 0v700h42v-288c0 -23 -4 -41 -4 -41h2c17 47 87 141 212 141c130 0 165 -77 165 -195v-317h-42v302c0 87 -11 169 -123 169c-94 0 -177 -66 -202 -159c-6 -21 -8 -44 -8 -68v-244h-42zM4 750l80 111h52l80 -111h-49l-56 80h-2l-56 -80h-49z" />
    <glyph glyph-name="Hbar" unicode="&#x126;" horiz-adv-x="786" 
d="M128 0v511h-65v40h65v149h43v-149h444v149h43v-149h65v-40h-65v-511h-43v331h-444v-331h-43zM171 371h444v140h-444v-140z" />
    <glyph glyph-name="hbar" unicode="&#x127;" horiz-adv-x="586" 
d="M7 569v40h81v91h42v-91h133v-40h-133v-152c0 -23 -2 -41 -2 -41h2c17 47 85 136 210 136c130 0 165 -77 165 -195v-317h-42v302c0 87 -11 169 -123 169c-94 0 -177 -66 -202 -159c-6 -21 -8 -44 -8 -68v-244h-42v569h-81z" />
    <glyph glyph-name="Itilde" unicode="&#x128;" horiz-adv-x="259" 
d="M108 0v700h43v-700h-43zM-14 753c0 71 28 108 83 108c67 0 79 -74 126 -74c35 0 40 48 40 71h40c0 -71 -28 -108 -83 -108c-67 0 -79 74 -126 74c-35 0 -40 -48 -40 -71h-40z" />
    <glyph glyph-name="itilde" unicode="&#x129;" horiz-adv-x="218" 
d="M88 0v500h42v-500h-42zM-34 592c0 71 28 108 83 108c67 0 79 -74 126 -74c35 0 40 48 40 71h40c0 -71 -28 -108 -83 -108c-67 0 -79 74 -126 74c-35 0 -40 -48 -40 -71h-40z" />
    <glyph glyph-name="Imacron" unicode="&#x12a;" horiz-adv-x="259" 
d="M108 0v700h43v-700h-43zM11 786v40h239v-40h-239z" />
    <glyph glyph-name="imacron" unicode="&#x12b;" horiz-adv-x="218" 
d="M88 0v500h42v-500h-42zM-9 625v40h239v-40h-239z" />
    <glyph glyph-name="Ibreve" unicode="&#x12c;" horiz-adv-x="259" 
d="M108 0v700h43v-700h-43zM130 747c-51 0 -101 32 -101 98v16h40v-14c0 -44 28 -62 61 -62c32 0 61 18 61 63v13h40v-16c0 -66 -50 -98 -101 -98z" />
    <glyph glyph-name="ibreve" unicode="&#x12d;" horiz-adv-x="218" 
d="M88 0v500h42v-500h-42zM110 586c-51 0 -101 32 -101 98v16h40v-14c0 -44 28 -62 61 -62c32 0 61 18 61 63v13h40v-16c0 -66 -50 -98 -101 -98z" />
    <glyph glyph-name="Iogonek" unicode="&#x12e;" horiz-adv-x="259" 
d="M36 -113c0 67 64 115 72 120v693h43v-700c-21 -17 -70 -63 -70 -109c0 -50 68 -56 68 -56l-9 -39s-104 6 -104 91z" />
    <glyph glyph-name="iogonek" unicode="&#x12f;" horiz-adv-x="218" 
d="M15 -113c0 69 68 118 73 121v492h42v-500c-21 -17 -70 -63 -70 -109c0 -50 68 -56 68 -56l-9 -39s-104 6 -104 91zM84 627v73h50v-73h-50z" />
    <glyph glyph-name="Idotaccent" unicode="&#x130;" horiz-adv-x="259" 
d="M108 0v700h43v-700h-43zM107 788v73h46v-73h-46z" />
    <glyph glyph-name="dotlessi" unicode="&#x131;" horiz-adv-x="218" 
d="M88 0v500h42v-500h-42z" />
    <glyph glyph-name="IJ" unicode="&#x132;" horiz-adv-x="557" 
d="M260 -5v42c69 0 154 23 154 181v482h43v-482c0 -187 -106 -223 -197 -223zM108 0v700h43v-700h-43z" />
    <glyph glyph-name="ij" unicode="&#x133;" horiz-adv-x="433" 
d="M84 627v73h50v-73h-50zM88 0v500h42v-500h-42zM303 500h42v-520c0 -166 -108 -185 -159 -185c-15 0 -25 2 -25 2v39s9 -2 22 -2c40 0 120 16 120 145v521zM299 627v73h50v-73h-50z" />
    <glyph glyph-name="Jcircumflex" unicode="&#x134;" horiz-adv-x="513" 
d="M39 191v22h43v-23c0 -46 11 -80 28 -105c28 -40 73 -56 116 -56c69 0 144 40 144 161v470h-167v40h210v-509c0 -150 -96 -203 -187 -203s-187 53 -187 203zM202 750l80 111h52l80 -111h-49l-56 80h-2l-56 -80h-49z" />
    <glyph glyph-name="jcircumflex" unicode="&#x135;" horiz-adv-x="218" 
d="M88 500h42v-520c0 -166 -108 -185 -159 -185c-15 0 -25 2 -25 2v39s9 -2 22 -2c40 0 120 16 120 145v521zM-1 589l80 111h52l80 -111h-49l-56 80h-2l-56 -80h-49z" />
    <glyph glyph-name="Kcommaaccent" unicode="&#x136;" horiz-adv-x="580" 
d="M108 0v700h43v-312h130l200 312h52l-215 -330v-2l229 -368h-52l-214 348h-130v-348h-43zM277 -66h48c4 -17 6 -32 6 -47c0 -29 -8 -55 -22 -87h-39c11 29 18 53 18 78c0 17 -3 35 -11 56z" />
    <glyph glyph-name="kcommaaccent" unicode="&#x137;" horiz-adv-x="480" 
d="M88 0v700h42v-397h89l162 197h55l-181 -215v-2l198 -283h-53l-181 264h-89v-264h-42zM226 -66h48c4 -17 6 -32 6 -47c0 -29 -8 -55 -22 -87h-39c11 29 18 53 18 78c0 17 -3 35 -11 56z" />
    <glyph glyph-name="kgreenlandic" unicode="&#x138;" horiz-adv-x="483" 
d="M88 0v500h42v-213h86l173 213h57l-191 -230v-2l188 -268h-55l-172 250h-86v-250h-42z" />
    <glyph glyph-name="Lacute" unicode="&#x139;" horiz-adv-x="509" 
d="M108 0v700h43v-660h334v-40h-377zM107 750l67 111h56l-79 -111h-44z" />
    <glyph glyph-name="lacute" unicode="&#x13a;" horiz-adv-x="230" 
d="M83 101v599h42v-586c0 -70 36 -78 59 -78c8 0 15 1 15 1v-39s-9 -2 -18 -2c-29 0 -98 11 -98 105zM83 750l67 111h56l-79 -111h-44z" />
    <glyph glyph-name="Lcommaaccent" unicode="&#x13b;" horiz-adv-x="509" 
d="M108 0v700h43v-660h334v-40h-377zM279 -66h48c4 -17 6 -32 6 -47c0 -29 -8 -55 -22 -87h-39c11 29 18 53 18 78c0 17 -3 35 -11 56z" />
    <glyph glyph-name="lcommaaccent" unicode="&#x13c;" horiz-adv-x="230" 
d="M83 101v599h42v-586c0 -70 36 -78 59 -78c8 0 15 1 15 1v-39s-9 -2 -18 -2c-29 0 -98 11 -98 105zM112 -66h48c4 -17 6 -32 6 -47c0 -29 -8 -55 -22 -87h-39c11 29 18 53 18 78c0 17 -3 35 -11 56z" />
    <glyph glyph-name="Lcaron" unicode="&#x13d;" horiz-adv-x="509" 
d="M108 0v700h43v-660h334v-40h-377zM248 700h48c4 -17 6 -32 6 -47c0 -29 -8 -55 -22 -87h-39c11 29 18 53 18 78c0 17 -3 35 -11 56z" />
    <glyph glyph-name="lcaron" unicode="&#x13e;" horiz-adv-x="260" 
d="M83 101v599h42v-586c0 -70 36 -78 59 -78c8 0 15 1 15 1v-39s-9 -2 -18 -2c-29 0 -98 11 -98 105zM193 700h48c4 -17 6 -32 6 -47c0 -29 -8 -55 -22 -87h-39c11 29 18 53 18 78c0 17 -3 35 -11 56z" />
    <glyph glyph-name="Ldot" unicode="&#x13f;" horiz-adv-x="509" 
d="M108 0v700h43v-660h334v-40h-377zM284 334v63h61v-63h-61z" />
    <glyph glyph-name="ldot" unicode="&#x140;" horiz-adv-x="264" 
d="M83 101v599h42v-586c0 -70 36 -78 59 -78c8 0 15 1 15 1v-39s-9 -2 -18 -2c-29 0 -98 11 -98 105zM190 334v63h61v-63h-61z" />
    <glyph glyph-name="Lslash" unicode="&#x141;" horiz-adv-x="535" 
d="M69 333v47l65 37v283h43v-258l115 67v-48l-115 -66v-355h334v-40h-377v370z" />
    <glyph glyph-name="lslash" unicode="&#x142;" horiz-adv-x="293" 
d="M36 333v47l89 51v269h42v-244l92 53v-48l-92 -53v-294c0 -70 36 -78 59 -78c8 0 15 1 15 1v-39s-9 -2 -18 -2c-29 0 -98 11 -98 105v283z" />
    <glyph glyph-name="Nacute" unicode="&#x143;" horiz-adv-x="752" 
d="M108 0v700h40l399 -549c23 -32 57 -88 57 -88h2s-5 53 -5 88v549h43v-700h-40l-399 549c-23 32 -57 88 -57 88h-2s5 -53 5 -88v-549h-43zM353 750l67 111h56l-79 -111h-44z" />
    <glyph glyph-name="nacute" unicode="&#x144;" horiz-adv-x="586" 
d="M88 0v500h42v-88c0 -23 -4 -41 -4 -41h2c17 47 87 141 212 141c130 0 165 -77 165 -195v-317h-42v302c0 87 -11 169 -123 169c-94 0 -177 -66 -202 -159c-6 -21 -8 -44 -8 -68v-244h-42zM285 589l67 111h56l-79 -111h-44z" />
    <glyph glyph-name="Ncommaaccent" unicode="&#x145;" horiz-adv-x="752" 
d="M108 0v700h40l399 -549c23 -32 57 -88 57 -88h2s-5 53 -5 88v549h43v-700h-40l-399 549c-23 32 -57 88 -57 88h-2s5 -53 5 -88v-549h-43zM351 -66h48c4 -17 6 -32 6 -47c0 -29 -8 -55 -22 -87h-39c11 29 18 53 18 78c0 17 -3 35 -11 56z" />
    <glyph glyph-name="ncommaaccent" unicode="&#x146;" horiz-adv-x="586" 
d="M88 0v500h42v-88c0 -23 -4 -41 -4 -41h2c17 47 87 141 212 141c130 0 165 -77 165 -195v-317h-42v302c0 87 -11 169 -123 169c-94 0 -177 -66 -202 -159c-6 -21 -8 -44 -8 -68v-244h-42zM272 -66h48c4 -17 6 -32 6 -47c0 -29 -8 -55 -22 -87h-39c11 29 18 53 18 78
c0 17 -3 35 -11 56z" />
    <glyph glyph-name="Ncaron" unicode="&#x147;" horiz-adv-x="752" 
d="M108 0v700h40l399 -549c23 -32 57 -88 57 -88h2s-5 53 -5 88v549h43v-700h-40l-399 549c-23 32 -57 88 -57 88h-2s5 -53 5 -88v-549h-43zM350 750l-80 111h49l56 -80h2l56 80h49l-80 -111h-52z" />
    <glyph glyph-name="ncaron" unicode="&#x148;" horiz-adv-x="586" 
d="M88 0v500h42v-88c0 -23 -4 -41 -4 -41h2c17 47 87 141 212 141c130 0 165 -77 165 -195v-317h-42v302c0 87 -11 169 -123 169c-94 0 -177 -66 -202 -159c-6 -21 -8 -44 -8 -68v-244h-42zM282 589l-80 111h49l56 -80h2l56 80h49l-80 -111h-52z" />
    <glyph glyph-name="napostrophe" unicode="&#x149;" horiz-adv-x="586" 
d="M88 0v500h42v-88c0 -23 -4 -41 -4 -41h2c17 47 87 141 212 141c130 0 165 -77 165 -195v-317h-42v302c0 87 -11 169 -123 169c-94 0 -177 -66 -202 -159c-6 -21 -8 -44 -8 -68v-244h-42zM32 700h48c4 -17 6 -32 6 -47c0 -29 -8 -55 -22 -87h-39c11 29 18 53 18 78
c0 17 -3 35 -11 56z" />
    <glyph glyph-name="Eng" unicode="&#x14a;" horiz-adv-x="752" 
d="M108 0v700h40l399 -549c23 -32 57 -88 57 -88h2s-5 53 -5 88v549h43v-702c0 -150 -96 -203 -187 -203v42c69 0 144 40 144 167l-396 545c-23 32 -57 88 -57 88h-2s5 -53 5 -88v-549h-43z" />
    <glyph glyph-name="eng" unicode="&#x14b;" horiz-adv-x="586" 
d="M88 0v500h42v-83c0 -23 -2 -41 -2 -41h2c17 47 85 136 210 136c130 0 165 -77 165 -195v-342c0 -166 -108 -185 -159 -185c-15 0 -25 2 -25 2v39s9 -2 22 -2c40 0 120 16 120 145v328c0 87 -11 169 -123 169c-94 0 -177 -66 -202 -159c-6 -21 -8 -44 -8 -68v-244h-42z
" />
    <glyph glyph-name="Omacron" unicode="&#x14c;" horiz-adv-x="826" 
d="M59 355c0 201 159 357 354 357s354 -156 354 -357c0 -206 -159 -367 -354 -367s-354 161 -354 367zM104 355c0 -184 138 -326 309 -326s309 142 309 326c0 179 -138 316 -309 316s-309 -137 -309 -316zM294 786v40h239v-40h-239z" />
    <glyph glyph-name="omacron" unicode="&#x14d;" horiz-adv-x="620" 
d="M51 253c0 146 116 259 259 259s259 -113 259 -259c0 -149 -116 -265 -259 -265s-259 116 -259 265zM95 253c0 -127 96 -224 215 -224s215 97 215 224c0 124 -96 218 -215 218s-215 -94 -215 -218zM191 625v40h239v-40h-239z" />
    <glyph glyph-name="Obreve" unicode="&#x14e;" horiz-adv-x="826" 
d="M59 355c0 201 159 357 354 357s354 -156 354 -357c0 -206 -159 -367 -354 -367s-354 161 -354 367zM104 355c0 -184 138 -326 309 -326s309 142 309 326c0 179 -138 316 -309 316s-309 -137 -309 -316zM413 747c-51 0 -101 32 -101 98v16h40v-14c0 -44 28 -62 61 -62
c32 0 61 18 61 63v13h40v-16c0 -66 -50 -98 -101 -98z" />
    <glyph glyph-name="obreve" unicode="&#x14f;" horiz-adv-x="620" 
d="M51 253c0 146 116 259 259 259s259 -113 259 -259c0 -149 -116 -265 -259 -265s-259 116 -259 265zM95 253c0 -127 96 -224 215 -224s215 97 215 224c0 124 -96 218 -215 218s-215 -94 -215 -218zM310 586c-51 0 -101 32 -101 98v16h40v-14c0 -44 28 -62 61 -62
c32 0 61 18 61 63v13h40v-16c0 -66 -50 -98 -101 -98z" />
    <glyph glyph-name="Ohungarumlaut" unicode="&#x150;" horiz-adv-x="826" 
d="M59 355c0 201 159 357 354 357s354 -156 354 -357c0 -206 -159 -367 -354 -367s-354 161 -354 367zM104 355c0 -184 138 -326 309 -326s309 142 309 326c0 179 -138 316 -309 316s-309 -137 -309 -316zM433 750l67 111h56l-79 -111h-44zM318 750l62 111h50l-65 -111h-47z
" />
    <glyph glyph-name="ohungarumlaut" unicode="&#x151;" horiz-adv-x="620" 
d="M51 253c0 146 116 259 259 259s259 -113 259 -259c0 -149 -116 -265 -259 -265s-259 116 -259 265zM95 253c0 -127 96 -224 215 -224s215 97 215 224c0 124 -96 218 -215 218s-215 -94 -215 -218zM330 589l67 111h56l-79 -111h-44zM215 589l62 111h50l-65 -111h-47z" />
    <glyph glyph-name="OE" unicode="&#x152;" horiz-adv-x="947" 
d="M62 350c0 202 145 360 352 360c34 0 87 -10 116 -10h337v-40h-340v-287h279v-40h-279v-293h359v-40h-355c-28 0 -83 -10 -117 -10c-207 0 -352 157 -352 360zM107 350c0 -181 122 -319 307 -319c37 0 70 8 70 8v622s-33 8 -70 8c-185 0 -307 -139 -307 -319z" />
    <glyph glyph-name="oe" unicode="&#x153;" horiz-adv-x="1025" 
d="M52 249c0 159 119 263 258 263c102 0 193 -57 234 -149h2c39 97 126 149 222 149c136 0 204 -107 204 -228c0 -11 -2 -27 -2 -27h-401c4 -150 101 -228 214 -228c96 0 155 63 155 63l23 -35s-70 -69 -178 -69c-105 0 -196 56 -236 150h-2c-41 -94 -132 -150 -235 -150
c-139 0 -258 102 -258 261zM572 296h356c-5 122 -78 177 -161 177c-92 0 -177 -60 -195 -177zM96 249c0 -133 97 -220 214 -220s215 87 215 225c0 132 -101 217 -215 217c-117 0 -214 -89 -214 -222z" />
    <glyph glyph-name="Racute" unicode="&#x154;" horiz-adv-x="621" 
d="M108 0v700h205c65 0 98 -7 126 -21c58 -29 97 -88 97 -168c0 -100 -58 -175 -140 -193v-2s7 -8 16 -25l157 -291h-51l-166 310h-201v-310h-43zM151 350h190c92 0 150 66 150 161c0 62 -31 112 -82 135c-20 9 -42 14 -98 14h-160v-310zM275 750l67 111h56l-79 -111h-44z
" />
    <glyph glyph-name="racute" unicode="&#x155;" horiz-adv-x="338" 
d="M88 0v500h42v-95c0 -23 -4 -41 -4 -41h2c25 77 81 140 160 140c15 0 29 -3 29 -3v-42s-12 2 -23 2c-78 0 -127 -66 -149 -140c-11 -35 -15 -72 -15 -105v-216h-42zM183 589l67 111h56l-79 -111h-44z" />
    <glyph glyph-name="Rcommaaccent" unicode="&#x156;" horiz-adv-x="621" 
d="M108 0v700h205c65 0 98 -7 126 -21c58 -29 97 -88 97 -168c0 -100 -58 -175 -140 -193v-2s7 -8 16 -25l157 -291h-51l-166 310h-201v-310h-43zM151 350h190c92 0 150 66 150 161c0 62 -31 112 -82 135c-20 9 -42 14 -98 14h-160v-310zM293 -66h48c4 -17 6 -32 6 -47
c0 -29 -8 -55 -22 -87h-39c11 29 18 53 18 78c0 17 -3 35 -11 56z" />
    <glyph glyph-name="rcommaaccent" unicode="&#x157;" horiz-adv-x="338" 
d="M88 0v500h42v-95c0 -23 -4 -41 -4 -41h2c25 77 81 140 160 140c15 0 29 -3 29 -3v-42s-12 2 -23 2c-78 0 -127 -66 -149 -140c-11 -35 -15 -72 -15 -105v-216h-42zM86 -66h48c4 -17 6 -32 6 -47c0 -29 -8 -55 -22 -87h-39c11 29 18 53 18 78c0 17 -3 35 -11 56z" />
    <glyph glyph-name="Rcaron" unicode="&#x158;" horiz-adv-x="621" 
d="M108 0v700h205c65 0 98 -7 126 -21c58 -29 97 -88 97 -168c0 -100 -58 -175 -140 -193v-2s7 -8 16 -25l157 -291h-51l-166 310h-201v-310h-43zM151 350h190c92 0 150 66 150 161c0 62 -31 112 -82 135c-20 9 -42 14 -98 14h-160v-310zM272 750l-80 111h49l56 -80h2l56 80
h49l-80 -111h-52z" />
    <glyph glyph-name="rcaron" unicode="&#x159;" horiz-adv-x="338" 
d="M88 0v500h42v-95c0 -23 -4 -41 -4 -41h2c25 77 81 140 160 140c15 0 29 -3 29 -3v-42s-12 2 -23 2c-78 0 -127 -66 -149 -140c-11 -35 -15 -72 -15 -105v-216h-42zM180 589l-80 111h49l56 -80h2l56 80h49l-80 -111h-52z" />
    <glyph glyph-name="Sacute" unicode="&#x15a;" horiz-adv-x="530" 
d="M56 75l29 33s71 -78 187 -78c87 0 156 54 156 138c0 199 -358 144 -358 363c0 93 83 181 210 181c114 0 178 -65 178 -65l-24 -37s-60 60 -153 60c-104 0 -166 -70 -166 -138c0 -185 358 -128 358 -362c0 -101 -78 -182 -203 -182c-138 0 -214 87 -214 87zM245 750
l67 111h56l-79 -111h-44z" />
    <glyph glyph-name="sacute" unicode="&#x15b;" horiz-adv-x="436" 
d="M45 60l27 32s56 -63 155 -63c61 0 115 32 115 94c0 127 -275 91 -275 254c0 89 75 135 160 135c102 0 148 -54 148 -54l-25 -34s-41 47 -126 47c-57 0 -113 -26 -113 -91c0 -130 275 -91 275 -257c0 -80 -68 -135 -160 -135c-121 0 -181 72 -181 72zM201 589l67 111h56
l-79 -111h-44z" />
    <glyph glyph-name="Scircumflex" unicode="&#x15c;" horiz-adv-x="530" 
d="M56 75l29 33s71 -78 187 -78c87 0 156 54 156 138c0 199 -358 144 -358 363c0 93 83 181 210 181c114 0 178 -65 178 -65l-24 -37s-60 60 -153 60c-104 0 -166 -70 -166 -138c0 -185 358 -128 358 -362c0 -101 -78 -182 -203 -182c-138 0 -214 87 -214 87zM163 750
l80 111h52l80 -111h-49l-56 80h-2l-56 -80h-49z" />
    <glyph glyph-name="scircumflex" unicode="&#x15d;" horiz-adv-x="436" 
d="M45 60l27 32s56 -63 155 -63c61 0 115 32 115 94c0 127 -275 91 -275 254c0 89 75 135 160 135c102 0 148 -54 148 -54l-25 -34s-41 47 -126 47c-57 0 -113 -26 -113 -91c0 -130 275 -91 275 -257c0 -80 -68 -135 -160 -135c-121 0 -181 72 -181 72zM119 589l80 111h52
l80 -111h-49l-56 80h-2l-56 -80h-49z" />
    <glyph glyph-name="Scedilla" unicode="&#x15e;" horiz-adv-x="530" 
d="M56 75l29 33s71 -78 187 -78c87 0 156 54 156 138c0 199 -358 144 -358 363c0 93 83 181 210 181c114 0 178 -65 178 -65l-24 -37s-60 60 -153 60c-104 0 -166 -70 -166 -138c0 -185 358 -128 358 -362c0 -97 -72 -175 -188 -181l-9 -49c41 -6 69 -32 69 -68
c0 -55 -44 -76 -91 -76c-27 0 -44 4 -44 4v38s18 -5 41 -5c27 0 54 8 54 37c0 23 -22 38 -61 38c-6 0 -12 -1 -12 -1l17 82c-125 8 -193 86 -193 86z" />
    <glyph glyph-name="scedilla" unicode="&#x15f;" horiz-adv-x="436" 
d="M45 60l27 32s56 -63 155 -63c61 0 115 32 115 94c0 127 -275 91 -275 254c0 89 75 135 160 135c102 0 148 -54 148 -54l-25 -34s-41 47 -126 47c-57 0 -113 -26 -113 -91c0 -130 275 -91 275 -257c0 -76 -62 -129 -147 -134l-9 -49c41 -6 69 -32 69 -68
c0 -55 -44 -76 -91 -76c-27 0 -44 4 -44 4v38s18 -5 41 -5c27 0 54 8 54 37c0 23 -22 38 -61 38c-6 0 -12 -1 -12 -1l17 82c-106 8 -158 71 -158 71z" />
    <glyph glyph-name="Scaron" unicode="&#x160;" horiz-adv-x="530" 
d="M56 75l29 33s71 -78 187 -78c87 0 156 54 156 138c0 199 -358 144 -358 363c0 93 83 181 210 181c114 0 178 -65 178 -65l-24 -37s-60 60 -153 60c-104 0 -166 -70 -166 -138c0 -185 358 -128 358 -362c0 -101 -78 -182 -203 -182c-138 0 -214 87 -214 87zM243 750
l-80 111h49l56 -80h2l56 80h49l-80 -111h-52z" />
    <glyph glyph-name="scaron" unicode="&#x161;" horiz-adv-x="436" 
d="M45 60l27 32s56 -63 155 -63c61 0 115 32 115 94c0 127 -275 91 -275 254c0 89 75 135 160 135c102 0 148 -54 148 -54l-25 -34s-41 47 -126 47c-57 0 -113 -26 -113 -91c0 -130 275 -91 275 -257c0 -80 -68 -135 -160 -135c-121 0 -181 72 -181 72zM199 589l-80 111h49
l56 -80h2l56 80h49l-80 -111h-52z" />
    <glyph glyph-name="Tcommaaccent" unicode="&#x162;" horiz-adv-x="581" 
d="M269 0v660h-261v40h565v-40h-261v-660h-5l-11 -60c41 -6 69 -32 69 -68c0 -55 -44 -76 -91 -76c-27 0 -44 4 -44 4v38s18 -5 41 -5c27 0 54 8 54 37c0 23 -22 38 -61 38c-6 0 -12 -1 -12 -1l20 93h-3z" />
    <glyph glyph-name="tcommaaccent" unicode="&#x163;" horiz-adv-x="315" 
d="M105 181v278h-66v38h66v142h42v-142h131v-38h-131v-275c0 -132 79 -149 119 -149c14 0 23 2 23 2v-39s-10 -2 -25 -2s-35 2 -55 7l-11 -63c41 -6 69 -32 69 -68c0 -55 -44 -76 -91 -76c-27 0 -44 4 -44 4v38s18 -5 41 -5c27 0 54 8 54 37c0 23 -22 38 -61 38
c-6 0 -12 -1 -12 -1l24 110c-39 23 -73 70 -73 164z" />
    <glyph glyph-name="Tcaron" unicode="&#x164;" horiz-adv-x="581" 
d="M269 0v660h-261v40h565v-40h-261v-660h-43zM264 750l-80 111h49l56 -80h2l56 80h49l-80 -111h-52z" />
    <glyph glyph-name="tcaron" unicode="&#x165;" horiz-adv-x="314" 
d="M104 181v278h-66v38h66v142h42v-142h131v-38h-131v-275c0 -132 79 -149 119 -149c14 0 23 2 23 2v-39s-10 -2 -25 -2c-52 0 -159 19 -159 185zM219 700h48c4 -17 6 -32 6 -47c0 -29 -8 -55 -22 -87h-39c11 29 18 53 18 78c0 17 -3 35 -11 56z" />
    <glyph glyph-name="Tbar" unicode="&#x166;" horiz-adv-x="604" 
d="M114 337v40h166v283h-261v40h565v-40h-261v-283h170v-40h-170v-337h-43v337h-166z" />
    <glyph glyph-name="tbar" unicode="&#x167;" horiz-adv-x="339" 
d="M48 295v40h66v124h-66v38h66v142h42v-142h131v-38h-131v-124h131v-40h-131v-111c0 -132 79 -149 119 -149c14 0 23 2 23 2v-39s-10 -2 -25 -2c-52 0 -159 19 -159 185v114h-66z" />
    <glyph glyph-name="Utilde" unicode="&#x168;" horiz-adv-x="719" 
d="M98 240v460h43v-458c0 -132 86 -213 218 -213s219 81 219 215v456h43v-460c0 -154 -107 -252 -261 -252s-262 98 -262 252zM215 753c0 71 28 108 83 108c67 0 79 -74 126 -74c35 0 40 48 40 71h40c0 -71 -28 -108 -83 -108c-67 0 -79 74 -126 74c-35 0 -40 -48 -40 -71
h-40z" />
    <glyph glyph-name="utilde" unicode="&#x169;" horiz-adv-x="581" 
d="M81 183v317h42v-302c0 -87 11 -169 123 -169c125 0 205 110 205 227v244h42v-500h-42v88c0 23 4 41 4 41h-2c-17 -47 -86 -141 -207 -141c-123 0 -165 68 -165 195zM143 592c0 71 28 108 83 108c67 0 79 -74 126 -74c35 0 40 48 40 71h40c0 -71 -28 -108 -83 -108
c-67 0 -79 74 -126 74c-35 0 -40 -48 -40 -71h-40z" />
    <glyph glyph-name="Umacron" unicode="&#x16a;" horiz-adv-x="719" 
d="M98 240v460h43v-458c0 -132 86 -213 218 -213s219 81 219 215v456h43v-460c0 -154 -107 -252 -261 -252s-262 98 -262 252zM240 786v40h239v-40h-239z" />
    <glyph glyph-name="umacron" unicode="&#x16b;" horiz-adv-x="581" 
d="M81 183v317h42v-302c0 -87 11 -169 123 -169c125 0 205 110 205 227v244h42v-500h-42v88c0 23 4 41 4 41h-2c-17 -47 -86 -141 -207 -141c-123 0 -165 68 -165 195zM168 625v40h239v-40h-239z" />
    <glyph glyph-name="Ubreve" unicode="&#x16c;" horiz-adv-x="719" 
d="M98 240v460h43v-458c0 -132 86 -213 218 -213s219 81 219 215v456h43v-460c0 -154 -107 -252 -261 -252s-262 98 -262 252zM359 747c-51 0 -101 32 -101 98v16h40v-14c0 -44 28 -62 61 -62c32 0 61 18 61 63v13h40v-16c0 -66 -50 -98 -101 -98z" />
    <glyph glyph-name="ubreve" unicode="&#x16d;" horiz-adv-x="581" 
d="M81 183v317h42v-302c0 -87 11 -169 123 -169c125 0 205 110 205 227v244h42v-500h-42v88c0 23 4 41 4 41h-2c-17 -47 -86 -141 -207 -141c-123 0 -165 68 -165 195zM287 586c-51 0 -101 32 -101 98v16h40v-14c0 -44 28 -62 61 -62c32 0 61 18 61 63v13h40v-16
c0 -66 -50 -98 -101 -98z" />
    <glyph glyph-name="Uring" unicode="&#x16e;" horiz-adv-x="719" 
d="M98 240v460h43v-458c0 -132 86 -213 218 -213s219 81 219 215v456h43v-460c0 -154 -107 -252 -261 -252s-262 98 -262 252zM359 740c-38 0 -67 29 -67 67s29 67 67 67s67 -29 67 -67s-29 -67 -67 -67zM359 775c19 0 32 13 32 32c0 20 -13 33 -32 33s-32 -13 -32 -33
c0 -19 13 -32 32 -32z" />
    <glyph glyph-name="uring" unicode="&#x16f;" horiz-adv-x="581" 
d="M81 183v317h42v-302c0 -87 11 -169 123 -169c125 0 205 110 205 227v244h42v-500h-42v88c0 23 4 41 4 41h-2c-17 -47 -86 -141 -207 -141c-123 0 -165 68 -165 195zM287 579c-38 0 -67 29 -67 67s29 67 67 67s67 -29 67 -67s-29 -67 -67 -67zM287 614c19 0 32 13 32 32
c0 20 -13 33 -32 33s-32 -13 -32 -33c0 -19 13 -32 32 -32z" />
    <glyph glyph-name="Uhungarumlaut" unicode="&#x170;" horiz-adv-x="719" 
d="M98 240v460h43v-458c0 -132 86 -213 218 -213s219 81 219 215v456h43v-460c0 -154 -107 -252 -261 -252s-262 98 -262 252zM379 750l67 111h56l-79 -111h-44zM264 750l62 111h50l-65 -111h-47z" />
    <glyph glyph-name="uhungarumlaut" unicode="&#x171;" horiz-adv-x="581" 
d="M81 183v317h42v-302c0 -87 11 -169 123 -169c125 0 205 110 205 227v244h42v-500h-42v88c0 23 4 41 4 41h-2c-17 -47 -86 -141 -207 -141c-123 0 -165 68 -165 195zM307 589l67 111h56l-79 -111h-44zM192 589l62 111h50l-65 -111h-47z" />
    <glyph glyph-name="Uogonek" unicode="&#x172;" horiz-adv-x="720" 
d="M334 -113c0 43 27 77 51 100v2s-16 -1 -25 -1c-154 0 -262 98 -262 252v460h43v-458c0 -132 86 -213 218 -213s219 81 219 215v456h43v-460c0 -126 -66 -184 -131 -225c-57 -36 -111 -71 -111 -124c0 -50 68 -56 68 -56l-9 -39s-104 6 -104 91z" />
    <glyph glyph-name="uogonek" unicode="&#x173;" horiz-adv-x="581" 
d="M81 183v317h42v-302c0 -87 11 -169 123 -169c125 0 205 110 205 227v244h42v-500c-23 -17 -80 -63 -80 -109c0 -50 68 -56 68 -56l-9 -39s-104 6 -104 91c0 69 77 118 83 121v75c0 23 2 41 2 41h-2c-17 -47 -84 -136 -205 -136c-123 0 -165 68 -165 195z" />
    <glyph glyph-name="Wcircumflex" unicode="&#x174;" horiz-adv-x="919" 
d="M458 639h-2s-14 -66 -27 -111l-148 -528h-54l-184 700h45l148 -570c9 -34 17 -75 17 -75h2c1 0 9 40 19 75l160 570h48l160 -570c10 -35 18 -75 19 -75h2s8 41 17 75l153 570h45l-189 -700h-54l-148 528c-13 45 -27 111 -27 111h-2zM363 750l80 111h52l80 -111h-49
l-56 80h-2l-56 -80h-49z" />
    <glyph glyph-name="wcircumflex" unicode="&#x175;" horiz-adv-x="797" 
d="M197 0l-176 500h45l136 -392c8 -24 17 -54 17 -54h2s9 30 17 54l137 390h47l137 -390c8 -24 17 -54 17 -54h2s8 29 17 54l136 392h45l-176 -500h-45l-139 388c-9 24 -17 54 -17 54h-2s-8 -30 -17 -54l-138 -388h-45zM292 589l80 111h52l80 -111h-49l-56 80h-2l-56 -80
h-49z" />
    <glyph glyph-name="Ycircumflex" unicode="&#x176;" horiz-adv-x="556" 
d="M257 0v304l-238 396h49l166 -276c20 -34 43 -79 43 -79h2s22 45 43 79l166 276h49l-237 -396v-304h-43zM172 750l80 111h52l80 -111h-49l-56 80h-2l-56 -80h-49z" />
    <glyph glyph-name="ycircumflex" unicode="&#x177;" horiz-adv-x="489" 
d="M8 -182l19 36s28 -24 62 -24c48 0 78 43 98 90l36 83l-207 497h45l165 -399c10 -24 18 -47 18 -47h2s7 23 17 47l165 399h45l-257 -617c-22 -52 -64 -93 -127 -93c-48 0 -81 28 -81 28zM140 589l80 111h52l80 -111h-49l-56 80h-2l-56 -80h-49z" />
    <glyph glyph-name="Ydieresis" unicode="&#x178;" horiz-adv-x="556" 
d="M257 0v304l-238 396h49l166 -276c20 -34 43 -79 43 -79h2s22 45 43 79l166 276h49l-237 -396v-304h-43zM318 788v73h46v-73h-46zM181 788v73h46v-73h-46z" />
    <glyph glyph-name="Zacute" unicode="&#x179;" horiz-adv-x="586" 
d="M44 0v34l385 562c24 36 48 64 48 64v2s-16 -2 -51 -2h-361v40h464v-34l-385 -562c-24 -36 -48 -64 -48 -64v-2s16 2 51 2h385v-40h-488zM280 750l67 111h56l-79 -111h-44z" />
    <glyph glyph-name="zacute" unicode="&#x17a;" horiz-adv-x="501" 
d="M44 0v34l303 381c18 23 39 46 39 46v2s-18 -2 -51 -2h-278v39h386v-34l-304 -381c-18 -23 -40 -46 -40 -46v-2s19 2 52 2h303v-39h-410zM225 589l67 111h56l-79 -111h-44z" />
    <glyph glyph-name="Zdotaccent" unicode="&#x17b;" horiz-adv-x="586" 
d="M44 0v34l385 562c24 36 48 64 48 64v2s-16 -2 -51 -2h-361v40h464v-34l-385 -562c-24 -36 -48 -64 -48 -64v-2s16 2 51 2h385v-40h-488zM280 788v73h46v-73h-46z" />
    <glyph glyph-name="zdotaccent" unicode="&#x17c;" horiz-adv-x="501" 
d="M44 0v34l303 381c18 23 39 46 39 46v2s-18 -2 -51 -2h-278v39h386v-34l-304 -381c-18 -23 -40 -46 -40 -46v-2s19 2 52 2h303v-39h-410zM226 627v73h46v-73h-46z" />
    <glyph glyph-name="Zcaron" unicode="&#x17d;" horiz-adv-x="586" 
d="M44 0v34l385 562c24 36 48 64 48 64v2s-16 -2 -51 -2h-361v40h464v-34l-385 -562c-24 -36 -48 -64 -48 -64v-2s16 2 51 2h385v-40h-488zM277 750l-80 111h49l56 -80h2l56 80h49l-80 -111h-52z" />
    <glyph glyph-name="zcaron" unicode="&#x17e;" horiz-adv-x="501" 
d="M44 0v34l303 381c18 23 39 46 39 46v2s-18 -2 -51 -2h-278v39h386v-34l-304 -381c-18 -23 -40 -46 -40 -46v-2s19 2 52 2h303v-39h-410zM223 589l-80 111h49l56 -80h2l56 80h49l-80 -111h-52z" />
    <glyph glyph-name="longs" unicode="&#x17f;" horiz-adv-x="239" 
d="M109 0v459h-63v38h63v23c0 165 108 185 158 185c16 0 26 -2 26 -2v-39s-9 2 -23 2c-40 0 -119 -16 -119 -145v-521h-42z" />
    <glyph glyph-name="florin" unicode="&#x192;" horiz-adv-x="568" 
d="M40 -57c0 0 27 -5 62 -5c40 0 119 16 130 145l26 295h-96v38h99l10 111c14 165 126 185 176 185c42 0 81 -7 81 -7v-39s-42 7 -82 7c-41 0 -119 -16 -131 -145l-11 -112h133v-38h-136l-26 -294c-15 -166 -124 -185 -174 -185c-37 0 -61 5 -61 5v39z" />
    <glyph glyph-name="Scommaaccent" unicode="&#x218;" horiz-adv-x="530" 
d="M56 75l29 33s71 -78 187 -78c87 0 156 54 156 138c0 199 -358 144 -358 363c0 93 83 181 210 181c114 0 178 -65 178 -65l-24 -37s-60 60 -153 60c-104 0 -166 -70 -166 -138c0 -185 358 -128 358 -362c0 -101 -78 -182 -203 -182c-138 0 -214 87 -214 87zM242 -66h48
c4 -17 6 -32 6 -47c0 -29 -8 -55 -22 -87h-39c11 29 18 53 18 78c0 17 -3 35 -11 56z" />
    <glyph glyph-name="scommaaccent" unicode="&#x219;" horiz-adv-x="436" 
d="M45 60l27 32s56 -63 155 -63c61 0 115 32 115 94c0 127 -275 91 -275 254c0 89 75 135 160 135c102 0 148 -54 148 -54l-25 -34s-41 47 -126 47c-57 0 -113 -26 -113 -91c0 -130 275 -91 275 -257c0 -80 -68 -135 -160 -135c-121 0 -181 72 -181 72zM199 -66h48
c4 -17 6 -32 6 -47c0 -29 -8 -55 -22 -87h-39c11 29 18 53 18 78c0 17 -3 35 -11 56z" />
    <glyph glyph-name="uni021A" unicode="&#x21a;" horiz-adv-x="581" 
d="M269 0v660h-261v40h565v-40h-261v-660h-43zM267 -66h48c4 -17 6 -32 6 -47c0 -29 -8 -55 -22 -87h-39c11 29 18 53 18 78c0 17 -3 35 -11 56z" />
    <glyph glyph-name="uni021B" unicode="&#x21b;" horiz-adv-x="314" 
d="M104 181v278h-66v38h66v142h42v-142h131v-38h-131v-275c0 -132 79 -149 119 -149c14 0 23 2 23 2v-39s-10 -2 -25 -2c-52 0 -159 19 -159 185zM184 -66h48c4 -17 6 -32 6 -47c0 -29 -8 -55 -22 -87h-39c11 29 18 53 18 78c0 17 -3 35 -11 56z" />
    <glyph glyph-name="circumflex" unicode="&#x2c6;" horiz-adv-x="508" 
d="M148 750l80 111h52l80 -111h-49l-56 80h-2l-56 -80h-49z" />
    <glyph glyph-name="caron" unicode="&#x2c7;" horiz-adv-x="508" 
d="M228 750l-80 111h49l56 -80h2l56 80h49l-80 -111h-52z" />
    <glyph glyph-name="breve" unicode="&#x2d8;" horiz-adv-x="510" 
d="M255 747c-51 0 -101 32 -101 98v16h40v-14c0 -44 28 -62 61 -62c32 0 61 18 61 63v13h40v-16c0 -66 -50 -98 -101 -98z" />
    <glyph glyph-name="dotaccent" unicode="&#x2d9;" horiz-adv-x="510" 
d="M232 788v73h46v-73h-46z" />
    <glyph glyph-name="ring" unicode="&#x2da;" horiz-adv-x="510" 
d="M255 740c-38 0 -67 29 -67 67s29 67 67 67s67 -29 67 -67s-29 -67 -67 -67zM255 775c19 0 32 13 32 32c0 20 -13 33 -32 33s-32 -13 -32 -33c0 -19 13 -32 32 -32z" />
    <glyph glyph-name="ogonek" unicode="&#x2db;" horiz-adv-x="509" 
d="M187 -113c0 80 96 133 96 133l39 -13s-90 -58 -90 -116c0 -50 68 -56 68 -56l-9 -39s-104 6 -104 91z" />
    <glyph glyph-name="tilde" unicode="&#x2dc;" horiz-adv-x="509" 
d="M110 753c0 71 28 108 83 108c67 0 79 -74 126 -74c35 0 40 48 40 71h40c0 -71 -28 -108 -83 -108c-67 0 -79 74 -126 74c-35 0 -40 -48 -40 -71h-40z" />
    <glyph glyph-name="hungarumlaut" unicode="&#x2dd;" horiz-adv-x="509" 
d="M251 750l67 111h56l-79 -111h-44zM136 750l62 111h50l-65 -111h-47z" />
    <glyph glyph-name="uni1E9E" unicode="&#x1e9e;" horiz-adv-x="663" 
d="M100 0v525c0 97 78 175 175 175h299v-30l-173 -242c-18 -25 -27 -36 -27 -36v-2h36c107 0 193 -87 193 -194s-86 -196 -193 -196h-171v40h169c87 0 150 71 150 156s-63 154 -148 154h-93v32l156 220c31 44 44 58 44 58v2s-6 -2 -42 -2h-194c-81 0 -138 -60 -138 -135
v-525h-43z" />
    <glyph glyph-name="endash" unicode="&#x2013;" horiz-adv-x="556" 
d="M40 263v40h476v-40h-476z" />
    <glyph glyph-name="emdash" unicode="&#x2014;" horiz-adv-x="756" 
d="M40 263v40h676v-40h-676z" />
    <glyph glyph-name="quoteleft" unicode="&#x2018;" horiz-adv-x="200" 
d="M60 557l48 151h39l-35 -151h-52z" />
    <glyph glyph-name="quoteright" unicode="&#x2019;" horiz-adv-x="197" 
d="M63 557l35 151h52l-48 -151h-39z" />
    <glyph glyph-name="quotesinglbase" unicode="&#x201a;" horiz-adv-x="235" 
d="M60 -90l35 151h52l-48 -151h-39z" />
    <glyph glyph-name="quotedblleft" unicode="&#x201c;" horiz-adv-x="300" 
d="M160 557l48 151h39l-35 -151h-52zM60 557l48 151h39l-35 -151h-52z" />
    <glyph glyph-name="quotedblright" unicode="&#x201d;" horiz-adv-x="297" 
d="M163 557l35 151h52l-48 -151h-39zM63 557l35 151h52l-48 -151h-39z" />
    <glyph glyph-name="quotedblbase" unicode="&#x201e;" horiz-adv-x="335" 
d="M160 -90l35 151h52l-48 -151h-39zM60 -90l35 151h52l-48 -151h-39z" />
    <glyph glyph-name="dagger" unicode="&#x2020;" horiz-adv-x="372" 
d="M163 -50v510h-114v40h114v200h42v-200h119v-40h-119v-510h-42z" />
    <glyph glyph-name="daggerdbl" unicode="&#x2021;" horiz-adv-x="409" 
d="M67 186v40h114v234h-114v40h114v200h42v-200h119v-40h-119v-234h119v-40h-119v-236h-42v236h-114z" />
    <glyph glyph-name="bullet" unicode="&#x2022;" horiz-adv-x="390" 
d="M195 159c-73 0 -132 59 -132 132s59 132 132 132s132 -59 132 -132s-59 -132 -132 -132z" />
    <glyph glyph-name="ellipsis" unicode="&#x2026;" horiz-adv-x="663" 
d="M88 0v63h61v-63h-61zM301 0v63h61v-63h-61zM514 0v63h61v-63h-61z" />
    <glyph glyph-name="perthousand" unicode="&#x2030;" horiz-adv-x="1017" 
d="M193 451c-72 0 -130 58 -130 130s58 131 130 131s131 -59 131 -131s-59 -130 -131 -130zM61 0l531 700h52l-531 -700h-52zM193 491c50 0 88 40 88 90s-38 91 -88 91s-87 -41 -87 -91s37 -90 87 -90zM699 118c0 72 58 131 130 131s131 -59 131 -131s-59 -130 -131 -130
s-130 58 -130 130zM379 118c0 72 58 131 130 131s131 -59 131 -131s-59 -130 -131 -130s-130 58 -130 130zM742 118c0 -50 37 -90 87 -90s88 40 88 90s-38 91 -88 91s-87 -41 -87 -91zM422 118c0 -50 37 -90 87 -90s88 40 88 90s-38 91 -88 91s-87 -41 -87 -91z" />
    <glyph glyph-name="guilsinglleft" unicode="&#x2039;" horiz-adv-x="331" 
d="M218 77l-164 205l164 206h53l-164 -206l164 -205h-53z" />
    <glyph glyph-name="guilsinglright" unicode="&#x203a;" horiz-adv-x="331" 
d="M60 77l164 205l-164 206h53l164 -206l-164 -205h-53z" />
    <glyph glyph-name="fraction" unicode="&#x2044;" horiz-adv-x="149" 
d="M-71 0h-44l336 700h43z" />
    <glyph glyph-name="Euro" unicode="&#x20ac;" horiz-adv-x="589" 
d="M45 273v40h54c-3 19 -3 64 1 89h-55v40h62c37 157 168 270 333 270c52 0 89 -11 89 -11l-10 -42s-36 11 -79 11c-143 0 -252 -93 -287 -228h328l-8 -40h-328c-5 -27 -5 -61 -2 -89h314l-7 -40h-301c30 -143 143 -243 291 -243c51 0 88 13 88 13l12 -41s-43 -14 -100 -14
c-170 0 -304 119 -336 285h-59z" />
    <glyph glyph-name="trademark" unicode="&#x2122;" horiz-adv-x="922" 
d="M429 264l35 436h35l126 -270c9 -20 14 -40 14 -40h2s5 20 14 40l126 270h35l35 -436h-38l-28 328c-1 15 1 28 1 28h-2l-127 -274h-34l-127 274h-2s2 -13 1 -28l-28 -328h-38zM188 264v398h-160v38h360v-38h-161v-398h-39z" />
    <glyph glyph-name="minus" unicode="&#x2212;" horiz-adv-x="600" 
d="M52 263v40h496v-40h-496z" />
    <glyph glyph-name="infinity" unicode="&#x221e;" horiz-adv-x="491" 
d="M246 184c-91 0 -165 74 -165 165s74 164 165 164s164 -73 164 -164s-73 -165 -164 -165z" />
    <glyph glyph-name="approxequal" unicode="&#x2248;" horiz-adv-x="600" 
d="M85 321l-25 30c30 31 83 66 141 66c94 0 127 -70 198 -70c44 0 88 28 116 56l25 -30c-30 -31 -83 -66 -141 -66c-94 0 -127 70 -198 70c-44 0 -88 -28 -116 -56zM85 161l-25 30c30 31 83 66 141 66c94 0 127 -70 198 -70c44 0 88 28 116 56l25 -30
c-30 -31 -83 -66 -141 -66c-94 0 -127 70 -198 70c-44 0 -88 -28 -116 -56z" />
    <glyph glyph-name="notequal" unicode="&#x2260;" horiz-adv-x="600" 
d="M130 92l68 91h-126v40h156l91 120h-247v40h277l90 119l33 -25l-71 -94h127v-40h-157l-91 -120h248v-40h-278l-87 -116z" />
    <glyph glyph-name="lessequal" unicode="&#x2264;" horiz-adv-x="600" 
d="M72 265v36l439 197v-48l-377 -166v-2l377 -166v-48zM72 -113h439v-40h-439v40z" />
    <glyph glyph-name="greaterequal" unicode="&#x2265;" horiz-adv-x="600" 
d="M90 68v48l377 166v2l-377 166v48l439 -197v-36zM89 -113h439v-40h-439v40z" />
    <glyph glyph-name="commaaccent" horiz-adv-x="335" 
d="M142 -66h48c4 -17 6 -32 6 -47c0 -29 -8 -55 -22 -87h-39c11 29 18 53 18 78c0 17 -3 35 -11 56z" />
    <glyph glyph-name="apple" horiz-adv-x="1130" 
d="M168 -5v152l-126 72v278l126 71v151l265 142l134 -71l132 71l265 -142v-151l124 -71v-278l-124 -72v-152l-265 -141l-132 71l-134 -71zM208 30l238 -126l121 66l118 -66l238 126v139l114 64v249l-114 66v136l-238 126l-118 -64l-121 64l-238 -126v-136l-114 -66v-249
l114 -64v-139zM242 64v121l-99 60v225l99 58v123l215 114l110 -59l107 59l214 -114v-123l100 -58v-225l-100 -60v-121l-214 -114l-107 58l-110 -58zM447 91h43v228h228v40h-228v192h199c23 0 29 -8 29 -29v-42h42v54c0 39 -15 57 -58 57h-320v-40h65v-460z" />
    <glyph glyph-name="zero.tnum" horiz-adv-x="556" 
d="M279 -12c-178 0 -236 159 -236 362c0 202 58 362 236 362s236 -160 236 -362c0 -203 -58 -362 -236 -362zM279 30c149 0 191 139 191 320c0 180 -42 320 -191 320s-191 -140 -191 -320c0 -181 42 -320 191 -320z" />
    <glyph glyph-name="one.tnum" horiz-adv-x="556" 
d="M110 0v40h159v570c0 18 1 35 1 35h-2s-7 -13 -37 -43l-83 -83l-30 29l151 152h43v-660h155v-40h-357z" />
    <glyph glyph-name="two.tnum" horiz-adv-x="556" 
d="M76 0c-2 13 -3 25 -3 37c0 243 373 271 373 483c0 84 -62 150 -163 150c-112 0 -170 -100 -170 -100l-32 22s63 120 203 120c138 0 207 -92 207 -192c0 -239 -372 -269 -372 -480h383v-40h-426z" />
    <glyph glyph-name="three.tnum" horiz-adv-x="556" 
d="M55 85l32 32s73 -87 188 -87c89 0 175 69 175 172c0 109 -92 167 -187 167h-48l-12 30l196 229c15 18 31 32 31 32v2s-19 -2 -54 -2h-287v40h401v-30l-226 -261c84 0 231 -42 231 -207c0 -120 -101 -214 -222 -214c-133 0 -218 97 -218 97z" />
    <glyph glyph-name="four.tnum" horiz-adv-x="556" 
d="M27 200v30l363 470h40v-460h104v-40h-104v-200h-43v200h-360zM87 240h300v328c0 28 3 63 3 63h-2s-17 -25 -35 -48l-266 -341v-2z" />
    <glyph glyph-name="five.tnum" horiz-adv-x="556" 
d="M62 89l35 27s48 -86 162 -86c109 0 194 78 194 183c0 106 -85 185 -194 185c-80 0 -136 -42 -136 -42l-32 11l40 333h325v-40h-287l-25 -209c-3 -27 -7 -43 -7 -43h2s49 32 120 32c134 0 239 -101 239 -227s-107 -225 -239 -225c-136 0 -197 101 -197 101z" />
    <glyph glyph-name="six.tnum" horiz-adv-x="556" 
d="M296 -12c-155 0 -245 148 -245 327c0 171 85 397 301 397c72 0 122 -28 122 -28l-21 -39s-43 25 -103 25c-163 0 -244 -168 -254 -322h2c39 59 116 96 198 96c123 0 215 -87 215 -223c0 -152 -100 -233 -215 -233zM295 30c108 0 171 80 171 191c0 112 -71 181 -172 181
c-108 0 -194 -76 -194 -139c0 -97 76 -233 195 -233z" />
    <glyph glyph-name="seven.tnum" horiz-adv-x="556" 
d="M132 0l292 595c17 35 37 65 37 65v2s-20 -2 -55 -2h-340v40h443v-30l-332 -670h-45z" />
    <glyph glyph-name="eight.tnum" horiz-adv-x="556" 
d="M46 200c0 128 125 198 125 198c-53 32 -91 75 -91 143c0 88 70 171 206 171c130 0 208 -73 208 -177c0 -108 -87 -191 -94 -198c59 -33 103 -77 103 -150c0 -110 -99 -199 -225 -199c-116 0 -232 74 -232 212zM458 186c0 105 -137 136 -246 189
c-14 -7 -121 -68 -121 -175s93 -170 187 -170c89 0 180 64 180 156zM125 541c0 -104 128 -134 235 -184c12 11 89 83 89 178c0 83 -68 135 -163 135c-101 0 -161 -58 -161 -129z" />
    <glyph glyph-name="nine.tnum" horiz-adv-x="556" 
d="M205 -12c-72 0 -122 28 -122 28l21 39s43 -25 103 -25c163 0 244 168 254 322h-2c-39 -59 -116 -96 -198 -96c-123 0 -215 87 -215 223c0 152 100 233 215 233c155 0 245 -148 245 -327c0 -171 -85 -397 -301 -397zM263 298c108 0 194 76 194 139c0 97 -76 233 -195 233
c-108 0 -171 -80 -171 -191c0 -112 71 -181 172 -181z" />
    <glyph glyph-name="hyphen.case" horiz-adv-x="396" 
d="M60 329v40h276v-40h-276z" />
    <glyph glyph-name="parenleft.case" horiz-adv-x="316" 
d="M256 -65h-44c-68 119 -110 274 -110 430c0 144 40 274 110 390h44c-72 -121 -113 -250 -113 -391c0 -149 37 -296 113 -429z" />
    <glyph glyph-name="parenright.case" horiz-adv-x="316" 
d="M104 -65h-44c76 133 113 280 113 429c0 141 -41 270 -113 391h44c70 -116 110 -246 110 -390c0 -156 -42 -311 -110 -430z" />
    <glyph glyph-name="bracketleft.case" horiz-adv-x="306" 
d="M131 -65v820h108v-40h-65v-740h65v-40h-108z" />
    <glyph glyph-name="bracketright.case" horiz-adv-x="306" 
d="M175 755v-820h-108v40h65v740h-65v40h108z" />
    <glyph glyph-name="braceleft.case" horiz-adv-x="365" 
d="M160 118v94c0 107 -85 119 -85 119v40s85 12 85 119v81c0 170 104 183 136 183h9v-39h-6c-23 0 -96 -10 -96 -143v-93c0 -97 -79 -127 -79 -127v-2s79 -26 79 -127v-106c0 -133 73 -143 96 -143h6v-39s-3 -1 -9 -1c-32 0 -136 13 -136 184z" />
    <glyph glyph-name="braceright.case" horiz-adv-x="365" 
d="M60 -26h6c23 0 96 10 96 143v106c0 101 79 127 79 127v2s-79 30 -79 127v93c0 133 -73 143 -96 143h-6v39h9c32 0 136 -13 136 -183v-81c0 -107 85 -119 85 -119v-40s-85 -12 -85 -119v-94c0 -171 -104 -184 -136 -184c-6 0 -9 1 -9 1v39z" />
    <glyph glyph-name="at.case" horiz-adv-x="805" 
d="M85 350c0 202 157 365 346 365c172 0 232 -88 232 -177v-344h70v-40h-265c-107 0 -193 87 -193 194s86 196 193 196h150c-3 67 -49 131 -181 131c-173 0 -307 -145 -307 -325c0 -181 134 -323 307 -323v-42c-195 0 -352 162 -352 365zM320 348c0 -85 68 -154 153 -154
h145v310h-143c-87 0 -155 -71 -155 -156z" />
    <glyph glyph-name="guillemotleft.case" horiz-adv-x="528" 
d="M397 137l-164 205l164 206h53l-164 -206l164 -205h-53zM237 137l-164 205l164 206h53l-164 -206l164 -205h-53z" />
    <glyph glyph-name="guillemotright.case" horiz-adv-x="528" 
d="M238 137l164 205l-164 206h53l164 -206l-164 -205h-53zM78 137l164 205l-164 206h53l164 -206l-164 -205h-53z" />
    <glyph glyph-name="guilsinglleft.case" horiz-adv-x="368" 
d="M237 137l-164 205l164 206h53l-164 -206l164 -205h-53z" />
    <glyph glyph-name="guilsinglright.case" horiz-adv-x="368" 
d="M78 137l164 205l-164 206h53l164 -206l-164 -205h-53z" />
    <glyph glyph-name="endash.case" horiz-adv-x="596" 
d="M60 323v40h476v-40h-476z" />
    <glyph glyph-name="emdash.case" horiz-adv-x="796" 
d="M60 323v40h676v-40h-676z" />
    <glyph glyph-name="periodcentered.case" horiz-adv-x="307" 
d="M125 317v59h57v-59h-57z" />
    <glyph glyph-name="questiondown.case" horiz-adv-x="491" 
d="M82 160c0 166 181 178 181 321v44h43v-44c0 -158 -179 -186 -179 -322c0 -72 59 -129 146 -129c73 0 127 42 127 42l23 -34s-59 -50 -149 -50c-115 0 -192 74 -192 172zM255 639v61h59v-61h-59z" />
    <glyph glyph-name="exclamdown.case" horiz-adv-x="327" 
d="M142 0v525h43v-525h-43zM133 639v61h59v-61h-59z" />
    <glyph glyph-name="bullet.case" horiz-adv-x="428" 
d="M214 219c-73 0 -132 59 -132 132s59 132 132 132s132 -59 132 -132s-59 -132 -132 -132z" />
    <glyph glyph-name="zero.p_osf" horiz-adv-x="586" 
d="M63 268c0 142 77 284 230 284s230 -142 230 -284c0 -140 -76 -280 -230 -280s-230 140 -230 280zM107 270c0 -120 62 -241 186 -241s186 121 186 241s-62 241 -186 241s-186 -121 -186 -241z" />
    <glyph glyph-name="one.p_osf" horiz-adv-x="442" 
d="M70 0v39h159v409c0 27 1 48 1 48h-2s-16 -12 -39 -26l-117 -71l-20 31l177 110h42v-501h140v-39h-341z" />
    <glyph glyph-name="two.p_osf" horiz-adv-x="520" 
d="M62 0v32c240 162 335 251 335 352c0 88 -69 127 -151 127c-94 0 -163 -79 -163 -79l-27 30s74 90 194 90c137 0 191 -91 191 -163c0 -116 -90 -211 -305 -350v-2s19 2 54 2h277v-39h-405z" />
    <glyph glyph-name="three.p_osf" horiz-adv-x="474" 
d="M-8 -37l32 29s58 -79 170 -79c87 0 174 60 174 160c0 104 -92 153 -188 153h-47l-12 32l192 213c15 17 31 30 31 30v2s-19 -2 -54 -2h-255v39h372v-28l-226 -245c84 0 231 -34 231 -194c0 -123 -102 -201 -220 -201c-130 0 -200 91 -200 91z" />
    <glyph glyph-name="four.p_osf" horiz-adv-x="574" 
d="M33 41v29l348 470h38v-460h113v-39h-113v-157h-42v157h-344zM91 80h286v329c0 28 3 63 3 63h-2s-17 -31 -35 -55z" />
    <glyph glyph-name="five.p_osf" horiz-adv-x="518" 
d="M37 -24l35 24s50 -76 156 -76c97 0 191 59 191 170c0 109 -93 165 -186 165c-77 0 -135 -38 -135 -38l-31 10l40 309h314v-39h-277l-24 -189c-3 -25 -7 -40 -7 -40h2s51 28 123 28c113 0 225 -67 225 -205c0 -132 -105 -212 -234 -212c-133 0 -192 93 -192 93z" />
    <glyph glyph-name="six.p_osf" horiz-adv-x="582" 
d="M72 286c0 164 85 382 300 382c72 0 122 -26 122 -26l-21 -38s-43 23 -103 23c-163 0 -245 -158 -255 -309h2c40 63 117 96 199 96c123 0 215 -80 215 -207c0 -143 -100 -219 -215 -219c-154 0 -244 135 -244 298zM120 242c0 -90 76 -213 195 -213c109 0 172 75 172 178
s-71 166 -173 166c-108 0 -194 -72 -194 -131z" />
    <glyph glyph-name="seven.p_osf" horiz-adv-x="492" 
d="M100 -116l280 557c16 33 34 60 34 60v2s-20 -2 -55 -2h-325v39h429v-28l-317 -628h-46z" />
    <glyph glyph-name="eight.p_osf" horiz-adv-x="577" 
d="M63 187c0 110 106 174 125 184c-54 31 -93 72 -93 137c0 83 69 161 200 161c127 0 204 -69 204 -166c0 -103 -90 -179 -96 -184c60 -32 107 -73 107 -144c0 -103 -98 -187 -221 -187c-114 0 -226 70 -226 199zM466 174c0 98 -131 127 -238 176
c-20 -10 -121 -65 -121 -163c0 -100 90 -158 182 -158c88 0 177 59 177 145zM139 508c0 -96 121 -125 225 -171c11 9 91 75 91 166c0 78 -68 125 -160 125c-96 0 -156 -53 -156 -120z" />
    <glyph glyph-name="nine.p_osf" horiz-adv-x="582" 
d="M109 -64c0 0 43 -23 103 -23c163 0 245 158 255 309h-2c-40 -63 -117 -96 -199 -96c-123 0 -215 80 -215 207c0 143 100 219 215 219c154 0 244 -135 244 -298c0 -164 -85 -382 -300 -382c-72 0 -122 26 -122 26zM268 167c108 0 194 72 194 131c0 90 -76 213 -195 213
c-109 0 -172 -75 -172 -178s71 -166 173 -166z" />
    <glyph glyph-name="zero.t_osf" horiz-adv-x="556" 
d="M49 268c0 142 77 284 230 284s230 -142 230 -284c0 -140 -76 -280 -230 -280s-230 140 -230 280zM93 270c0 -120 62 -241 186 -241s186 121 186 241s-62 241 -186 241s-186 -121 -186 -241z" />
    <glyph glyph-name="one.t_osf" horiz-adv-x="556" 
d="M137 0v39h159v409c0 27 1 48 1 48h-2s-16 -12 -39 -26l-117 -71l-20 31l177 110h42v-501h140v-39h-341z" />
    <glyph glyph-name="two.t_osf" horiz-adv-x="556" 
d="M89 0v32c240 162 335 251 335 352c0 88 -69 127 -151 127c-94 0 -163 -79 -163 -79l-27 30s74 90 194 90c137 0 191 -91 191 -163c0 -116 -90 -211 -305 -350v-2s19 2 54 2h277v-39h-405z" />
    <glyph glyph-name="three.t_osf" horiz-adv-x="556" 
d="M58 -37l32 29s58 -79 170 -79c87 0 174 60 174 160c0 104 -92 153 -188 153h-47l-12 32l192 213c15 17 31 30 31 30v2s-19 -2 -54 -2h-255v39h372v-28l-226 -245c84 0 231 -34 231 -194c0 -123 -102 -201 -220 -201c-130 0 -200 91 -200 91z" />
    <glyph glyph-name="four.t_osf" horiz-adv-x="556" 
d="M34 41v29l348 470h38v-460h113v-39h-113v-157h-42v157h-344zM92 80h286v329c0 28 3 63 3 63h-2s-17 -31 -35 -55z" />
    <glyph glyph-name="five.t_osf" horiz-adv-x="556" 
d="M64 -24l35 24s50 -76 156 -76c97 0 191 59 191 170c0 109 -93 165 -186 165c-77 0 -135 -38 -135 -38l-31 10l40 309h314v-39h-277l-24 -189c-3 -25 -7 -40 -7 -40h2s51 28 123 28c113 0 225 -67 225 -205c0 -132 -105 -212 -234 -212c-133 0 -192 93 -192 93z" />
    <glyph glyph-name="six.t_osf" horiz-adv-x="556" 
d="M49 286c0 164 85 382 300 382c72 0 122 -26 122 -26l-21 -38s-43 23 -103 23c-163 0 -245 -158 -255 -309h2c40 63 117 96 199 96c123 0 215 -80 215 -207c0 -143 -100 -219 -215 -219c-154 0 -244 135 -244 298zM97 242c0 -90 76 -213 195 -213c109 0 172 75 172 178
s-71 166 -173 166c-108 0 -194 -72 -194 -131z" />
    <glyph glyph-name="seven.t_osf" horiz-adv-x="556" 
d="M131 -116l280 557c16 33 34 60 34 60v2s-20 -2 -55 -2h-325v39h429v-28l-317 -628h-46z" />
    <glyph glyph-name="eight.t_osf" horiz-adv-x="556" 
d="M53 187c0 110 106 174 125 184c-54 31 -93 72 -93 137c0 83 69 161 200 161c127 0 204 -69 204 -166c0 -103 -90 -179 -96 -184c60 -32 107 -73 107 -144c0 -103 -98 -187 -221 -187c-114 0 -226 70 -226 199zM456 174c0 98 -131 127 -238 176
c-20 -10 -121 -65 -121 -163c0 -100 90 -158 182 -158c88 0 177 59 177 145zM129 508c0 -96 121 -125 225 -171c11 9 91 75 91 166c0 78 -68 125 -160 125c-96 0 -156 -53 -156 -120z" />
    <glyph glyph-name="nine.t_osf" horiz-adv-x="556" 
d="M106 -64c0 0 43 -23 103 -23c163 0 245 158 255 309h-2c-40 -63 -117 -96 -199 -96c-123 0 -215 80 -215 207c0 143 100 219 215 219c154 0 244 -135 244 -298c0 -164 -85 -382 -300 -382c-72 0 -122 26 -122 26zM265 167c108 0 194 72 194 131c0 90 -76 213 -195 213
c-109 0 -172 -75 -172 -178s71 -166 173 -166z" />
    <glyph glyph-name="dollar.osf" horiz-adv-x="513" 
d="M57 86l33 29s65 -86 178 -86c72 0 136 39 136 113c0 147 -317 106 -317 289c0 95 73 146 161 153v84h43v-84c97 -8 142 -60 142 -60l-27 -33s-48 53 -142 53c-68 0 -133 -31 -133 -109c0 -150 317 -106 317 -293c0 -88 -71 -149 -169 -153v-93h-43v94
c-118 12 -179 96 -179 96z" />
    <glyph glyph-name="cent.osf" horiz-adv-x="575" 
d="M64 298c0 136 97 227 220 239v87h43v-86c111 -6 169 -77 169 -77l-22 -35s-55 72 -162 72c-111 0 -204 -79 -204 -200s93 -200 204 -200c107 0 162 72 162 72l22 -35s-58 -72 -169 -78v-82h-43v83c-123 12 -220 103 -220 240z" />
    <glyph glyph-name="sterling.osf" horiz-adv-x="604" 
d="M62 0v39h66v209h-46v39h46v121c0 99 83 177 201 177c95 0 157 -51 157 -51l-29 -33s-53 43 -129 43c-103 0 -158 -66 -158 -140v-117h243v-39h-243v-209h351v-39h-459z" />
    <glyph glyph-name="yen.osf" horiz-adv-x="579" 
d="M101 277v40h114l-159 258h49l141 -232c20 -33 43 -76 43 -76h2s22 42 43 76l141 232h49l-158 -258h111v-40h-136l-29 -48v-32h165v-40h-165v-157h-43v157h-168v40h168v32l-30 48h-138z" />
    <glyph glyph-name="florin.osf" horiz-adv-x="568" 
d="M40 -84c0 0 27 -5 62 -5c40 0 120 16 131 145l24 275h-96v38h99l10 115c14 165 125 185 175 185c42 0 81 -7 81 -7v-39s-42 7 -82 7c-41 0 -119 -16 -131 -145l-11 -116h133v-38h-136l-24 -274c-15 -166 -124 -185 -174 -185c-37 0 -61 5 -61 5v39z" />
    <glyph glyph-name="Euro.osf" horiz-adv-x="621" 
d="M65 208v40h65c-2 14 -3 28 -3 42c0 10 0 20 1 31h-63v40h70c27 119 125 224 304 224c50 0 92 -12 92 -12l-11 -41s-40 11 -81 11c-147 0 -230 -83 -258 -182h301l-9 -40h-300c-2 -12 -2 -24 -2 -36c0 -18 2 -37 2 -37h288l-9 -40h-270c28 -98 113 -178 257 -178
c51 0 88 13 88 13l12 -41s-43 -14 -100 -14c-170 0 -271 100 -302 220h-72z" />
    <glyph glyph-name="zero.numerator" 
d="M188 256c-112 0 -148 98 -148 227c0 128 36 227 148 227s148 -99 148 -227c0 -129 -36 -227 -148 -227zM188 292c84 0 109 83 109 191c0 107 -25 191 -109 191c-85 0 -109 -84 -109 -191c0 -108 24 -191 109 -191z" />
    <glyph glyph-name="one.numerator" 
d="M77 266v36h96v325c0 11 1 22 1 22h-1s-4 -8 -23 -27l-44 -43l-26 27l93 94h38v-398h93v-36h-227z" />
    <glyph glyph-name="two.numerator" 
d="M55 266c-1 9 -2 19 -2 27c0 162 221 170 221 294c0 47 -36 87 -91 87c-57 0 -94 -50 -94 -50l-24 26s42 60 118 60c86 0 130 -58 130 -123c0 -150 -217 -154 -221 -285h229v-36h-266z" />
    <glyph glyph-name="three.numerator" 
d="M184 256c-95 0 -138 65 -138 65l28 26s35 -55 111 -55c49 0 103 42 103 101c0 61 -55 96 -107 96h-32l-11 24l108 127c11 13 25 25 25 25v2s-18 -3 -38 -3h-164v36h255v-26l-128 -150c54 -4 131 -35 131 -131c0 -77 -66 -137 -143 -137z" />
    <glyph glyph-name="four.numerator" 
d="M241 266v121h-215v26l222 287h31v-277h68v-36h-68v-121h-38zM81 423h160v147c0 28 3 65 3 65h-2s-17 -27 -35 -50l-126 -160v-2z" />
    <glyph glyph-name="five.numerator" 
d="M178 256c-87 0 -129 70 -129 70l32 21s31 -55 97 -55c62 0 112 47 112 108c0 59 -50 108 -112 108c-47 0 -81 -27 -81 -27l-26 10l26 209h206v-36h-174l-10 -91c-3 -27 -7 -43 -7 -43h2s27 14 65 14c86 0 150 -65 150 -144c0 -81 -68 -144 -151 -144z" />
    <glyph glyph-name="six.numerator" 
d="M198 256c-97 0 -152 89 -152 199c0 109 51 255 186 255c46 0 83 -20 83 -20l-19 -32s-30 16 -65 16c-85 0 -134 -87 -145 -178h2c23 28 71 48 110 48c79 0 138 -55 138 -140c0 -98 -64 -148 -138 -148zM198 292c64 0 99 50 99 112c0 64 -42 104 -100 104
c-59 0 -110 -42 -110 -78c0 -57 42 -138 111 -138z" />
    <glyph glyph-name="seven.numerator" 
d="M71 266l174 333c18 35 37 65 37 65v2s-20 -2 -55 -2h-178v36h279v-26l-214 -408h-43z" />
    <glyph glyph-name="eight.numerator" 
d="M41 388c0 68 60 109 77 120c-32 20 -55 48 -55 92c0 72 65 109 130 109s131 -37 131 -112c0 -63 -50 -112 -60 -120c38 -22 67 -50 67 -99c0 -67 -62 -123 -143 -123c-73 0 -147 46 -147 133zM292 377c0 63 -79 82 -144 114c-22 -13 -68 -48 -68 -103
c0 -61 53 -97 108 -97c51 0 104 36 104 86zM102 600c0 -59 69 -79 131 -107c14 13 52 53 52 104s-47 76 -93 76s-90 -24 -90 -73z" />
    <glyph glyph-name="nine.numerator" 
d="M40 562c0 98 64 148 138 148c97 0 152 -89 152 -199c0 -109 -51 -255 -186 -255c-46 0 -83 20 -83 20l19 32s30 -16 65 -16c85 0 134 87 145 178h-2c-23 -28 -71 -48 -110 -48c-79 0 -138 55 -138 140zM79 562c0 -64 42 -104 100 -104c59 0 110 42 110 78
c0 57 -42 138 -111 138c-64 0 -99 -50 -99 -112z" />
    <glyph glyph-name="zerosuperior" unicode="&#x2070;" 
d="M188 413c-112 0 -148 98 -148 227c0 128 36 227 148 227s148 -99 148 -227c0 -129 -36 -227 -148 -227zM188 449c84 0 109 83 109 191c0 107 -25 191 -109 191c-85 0 -109 -84 -109 -191c0 -108 24 -191 109 -191z" />
    <glyph glyph-name="foursuperior" unicode="&#x2074;" 
d="M241 423v121h-215v26l222 287h31v-277h68v-36h-68v-121h-38zM81 580h160v147c0 28 3 65 3 65h-2s-17 -27 -35 -50l-126 -160v-2z" />
    <glyph glyph-name="fivesuperior" unicode="&#x2075;" 
d="M178 413c-87 0 -129 70 -129 70l32 21s31 -55 97 -55c62 0 112 47 112 108c0 59 -50 108 -112 108c-47 0 -81 -27 -81 -27l-26 10l26 209h206v-36h-174l-10 -91c-3 -27 -7 -43 -7 -43h2s27 14 65 14c86 0 150 -65 150 -144c0 -81 -68 -144 -151 -144z" />
    <glyph glyph-name="sixsuperior" unicode="&#x2076;" 
d="M198 413c-97 0 -152 89 -152 199c0 109 51 255 186 255c46 0 83 -20 83 -20l-19 -32s-30 16 -65 16c-85 0 -134 -87 -145 -178h2c23 28 71 48 110 48c79 0 138 -55 138 -140c0 -98 -64 -148 -138 -148zM198 449c64 0 99 50 99 112c0 64 -42 104 -100 104
c-59 0 -110 -42 -110 -78c0 -57 42 -138 111 -138z" />
    <glyph glyph-name="sevensuperior" unicode="&#x2077;" 
d="M71 423l174 333c18 35 37 65 37 65v2s-20 -2 -55 -2h-178v36h279v-26l-214 -408h-43z" />
    <glyph glyph-name="eightsuperior" unicode="&#x2078;" 
d="M41 546c0 68 60 109 77 120c-32 20 -55 48 -55 92c0 72 65 109 130 109s131 -37 131 -112c0 -63 -50 -112 -60 -120c38 -22 67 -50 67 -99c0 -67 -62 -123 -143 -123c-73 0 -147 46 -147 133zM292 535c0 63 -79 82 -144 114c-22 -13 -68 -48 -68 -103
c0 -61 53 -97 108 -97c51 0 104 36 104 86zM102 758c0 -59 69 -79 131 -107c14 13 52 53 52 104s-47 76 -93 76s-90 -24 -90 -73z" />
    <glyph glyph-name="ninesuperior" unicode="&#x2079;" 
d="M40 719c0 98 64 148 138 148c97 0 152 -89 152 -199c0 -109 -51 -255 -186 -255c-46 0 -83 20 -83 20l19 32s30 -16 65 -16c85 0 134 87 145 178h-2c-23 -28 -71 -48 -110 -48c-79 0 -138 55 -138 140zM79 719c0 -64 42 -104 100 -104c59 0 110 42 110 78
c0 57 -42 138 -111 138c-64 0 -99 -50 -99 -112z" />
    <glyph glyph-name="zeroinferior" unicode="&#x2080;" 
d="M188 -167c-112 0 -148 98 -148 227c0 128 36 227 148 227s148 -99 148 -227c0 -129 -36 -227 -148 -227zM188 -131c84 0 109 83 109 191c0 107 -25 191 -109 191c-85 0 -109 -84 -109 -191c0 -108 24 -191 109 -191z" />
    <glyph glyph-name="oneinferior" unicode="&#x2081;" 
d="M77 -157v36h96v325c0 11 1 22 1 22h-1s-4 -8 -23 -27l-44 -43l-26 27l93 94h38v-398h93v-36h-227z" />
    <glyph glyph-name="twoinferior" unicode="&#x2082;" 
d="M55 -157c-1 9 -2 19 -2 27c0 162 221 170 221 294c0 47 -36 87 -91 87c-57 0 -94 -50 -94 -50l-24 26s42 60 118 60c86 0 130 -58 130 -123c0 -150 -217 -154 -221 -285h229v-36h-266z" />
    <glyph glyph-name="threeinferior" unicode="&#x2083;" 
d="M184 -168c-95 0 -138 65 -138 65l28 26s35 -55 111 -55c49 0 103 42 103 101c0 61 -55 96 -107 96h-32l-11 24l108 127c11 13 25 25 25 25v2s-18 -3 -38 -3h-164v36h255v-26l-128 -150c54 -4 131 -35 131 -131c0 -77 -66 -137 -143 -137z" />
    <glyph glyph-name="fourinferior" unicode="&#x2084;" 
d="M241 -157v121h-215v26l222 287h31v-277h68v-36h-68v-121h-38zM81 0h160v147c0 28 3 65 3 65h-2s-17 -27 -35 -50l-126 -160v-2z" />
    <glyph glyph-name="fiveinferior" unicode="&#x2085;" 
d="M178 -167c-87 0 -129 70 -129 70l32 21s31 -55 97 -55c62 0 112 47 112 108c0 59 -50 108 -112 108c-47 0 -81 -27 -81 -27l-26 10l26 209h206v-36h-174l-10 -91c-3 -27 -7 -43 -7 -43h2s27 14 65 14c86 0 150 -65 150 -144c0 -81 -68 -144 -151 -144z" />
    <glyph glyph-name="sixinferior" unicode="&#x2086;" 
d="M198 -167c-97 0 -152 89 -152 199c0 109 51 255 186 255c46 0 83 -20 83 -20l-19 -32s-30 16 -65 16c-85 0 -134 -87 -145 -178h2c23 28 71 48 110 48c79 0 138 -55 138 -140c0 -98 -64 -148 -138 -148zM198 -131c64 0 99 50 99 112c0 64 -42 104 -100 104
c-59 0 -110 -42 -110 -78c0 -57 42 -138 111 -138z" />
    <glyph glyph-name="seveninferior" unicode="&#x2087;" 
d="M71 -158l174 333c18 35 37 65 37 65v2s-20 -2 -55 -2h-178v36h279v-26l-214 -408h-43z" />
    <glyph glyph-name="eightinferior" unicode="&#x2088;" 
d="M41 -33c0 68 60 109 77 120c-32 20 -55 48 -55 92c0 72 65 109 130 109s131 -37 131 -112c0 -63 -50 -112 -60 -120c38 -22 67 -50 67 -99c0 -67 -62 -123 -143 -123c-73 0 -147 46 -147 133zM292 -44c0 63 -79 82 -144 114c-22 -13 -68 -48 -68 -103
c0 -61 53 -97 108 -97c51 0 104 36 104 86zM102 179c0 -59 69 -79 131 -107c14 13 52 53 52 104s-47 76 -93 76s-90 -24 -90 -73z" />
    <glyph glyph-name="nineinferior" unicode="&#x2089;" 
d="M40 139c0 98 64 148 138 148c97 0 152 -89 152 -199c0 -109 -51 -255 -186 -255c-46 0 -83 20 -83 20l19 32s30 -16 65 -16c85 0 134 87 145 178h-2c-23 -28 -71 -48 -110 -48c-79 0 -138 55 -138 140zM79 139c0 -64 42 -104 100 -104c59 0 110 42 110 78
c0 57 -42 138 -111 138c-64 0 -99 -50 -99 -112z" />
    <glyph glyph-name="zero.denominator" 
d="M188 -10c-112 0 -148 98 -148 227c0 128 36 227 148 227s148 -99 148 -227c0 -129 -36 -227 -148 -227zM188 26c84 0 109 83 109 191c0 107 -25 191 -109 191c-85 0 -109 -84 -109 -191c0 -108 24 -191 109 -191z" />
    <glyph glyph-name="one.denominator" 
d="M77 0v36h96v325c0 11 1 22 1 22h-1s-4 -8 -23 -27l-44 -43l-26 27l93 94h38v-398h93v-36h-227z" />
    <glyph glyph-name="two.denominator" 
d="M55 0c-1 9 -2 19 -2 27c0 162 221 170 221 294c0 47 -36 87 -91 87c-57 0 -94 -50 -94 -50l-24 26s42 60 118 60c86 0 130 -58 130 -123c0 -150 -217 -154 -221 -285h229v-36h-266z" />
    <glyph glyph-name="three.denominator" 
d="M184 -10c-95 0 -138 65 -138 65l28 26s35 -55 111 -55c49 0 103 42 103 101c0 61 -55 96 -107 96h-32l-11 24l108 127c11 13 25 25 25 25v2s-18 -3 -38 -3h-164v36h255v-26l-128 -150c54 -4 131 -35 131 -131c0 -77 -66 -137 -143 -137z" />
    <glyph glyph-name="four.denominator" 
d="M241 0v121h-215v26l222 287h31v-277h68v-36h-68v-121h-38zM81 157h160v147c0 28 3 65 3 65h-2s-17 -27 -35 -50l-126 -160v-2z" />
    <glyph glyph-name="five.denominator" 
d="M178 -10c-87 0 -129 70 -129 70l32 21s31 -55 97 -55c62 0 112 47 112 108c0 59 -50 108 -112 108c-47 0 -81 -27 -81 -27l-26 10l26 209h206v-36h-174l-10 -91c-3 -27 -7 -43 -7 -43h2s27 14 65 14c86 0 150 -65 150 -144c0 -81 -68 -144 -151 -144z" />
    <glyph glyph-name="six.denominator" 
d="M198 -10c-97 0 -152 89 -152 199c0 109 51 255 186 255c46 0 83 -20 83 -20l-19 -32s-30 16 -65 16c-85 0 -134 -87 -145 -178h2c23 28 71 48 110 48c79 0 138 -55 138 -140c0 -98 -64 -148 -138 -148zM198 26c64 0 99 50 99 112c0 64 -42 104 -100 104
c-59 0 -110 -42 -110 -78c0 -57 42 -138 111 -138z" />
    <glyph glyph-name="seven.denominator" 
d="M71 0l174 333c18 35 37 65 37 65v2s-20 -2 -55 -2h-178v36h279v-26l-214 -408h-43z" />
    <glyph glyph-name="eight.denominator" 
d="M41 123c0 68 60 109 77 120c-32 20 -55 48 -55 92c0 72 65 109 130 109s131 -37 131 -112c0 -63 -50 -112 -60 -120c38 -22 67 -50 67 -99c0 -67 -62 -123 -143 -123c-73 0 -147 46 -147 133zM292 112c0 63 -79 82 -144 114c-22 -13 -68 -48 -68 -103
c0 -61 53 -97 108 -97c51 0 104 36 104 86zM102 335c0 -59 69 -79 131 -107c14 13 52 53 52 104s-47 76 -93 76s-90 -24 -90 -73z" />
    <glyph glyph-name="nine.denominator" 
d="M40 296c0 98 64 148 138 148c97 0 152 -89 152 -199c0 -109 -51 -255 -186 -255c-46 0 -83 20 -83 20l19 32s30 -16 65 -16c85 0 134 87 145 178h-2c-23 -28 -71 -48 -110 -48c-79 0 -138 55 -138 140zM79 296c0 -64 42 -104 100 -104c59 0 110 42 110 78
c0 57 -42 138 -111 138c-64 0 -99 -50 -99 -112z" />
    <glyph glyph-name="thinspace" unicode="&#x2009;" horiz-adv-x="10" 
 />
    <glyph glyph-name="uni00A0" unicode="&#xa0;" horiz-adv-x="277" 
 />
    <glyph glyph-name="uni00AD" unicode="&#xad;" horiz-adv-x="432" 
d="M78 263v40h276v-40h-276z" />
    </font>
</defs>
</svg>
